旋风动漫BT资源发布索引 | 汇聚动漫BT/ED资源
HD 1080p from HULU JAPAN. General Unique ID : 59240853724799672452356903720700793559 (0x2C915F97ED341AAEC68ABC27D2F2D2D7) Complete name : Shin.Shinchou.Kouki.Classmate.wa.Sengoku.Bushou.EP10.1080p.HULU.WEB-DL.AAC2.0.H.264-MagicStar.mkv Format : Matroska Format version : Version 4 File size : 1.29 GiB Duration : 45 min 28 s Overall bit rate : 4 068 kb/s Encoded date : UTC 2022-09-27 09:11:59 Writing application : mkvmerge v50.0.0 ('Awakenings') 64-bit Writing library : libebml v1.4.0 + libmatroska v1.6.2 Cover : Yes Attachments : cover.png Video ID : 1 Format : AVC Format/Info : Advanced Video Codec Format profile : [email protected] Format settings : CABAC / 4 Ref Frames Format settings, CABAC : Yes Format settings, Reference fra : 4 frames Codec ID : V_MPEG4/ISO/AVC Duration : 45 min 27 s Bit rate : 3 940 kb/s Width : 1 920 pixels Height : 1 080 pixels Display aspect ratio : 16:9 Frame rate mode : Constant Frame rate : 29.970 (29970/1000) FPS Original frame rate : 29.970 (30000/1001) FPS Color space : YUV Chroma subsampling : 4:2:0 Bit depth : 8 bits Scan type : Progressive Bits/(Pixel*Frame) : 0.063 Stream size : 1.25 GiB (97%) Default : Yes Forced : No Color range : Limited Color primaries : BT.709 Transfer characteristics : BT.709 Matrix coefficients : BT.709 Audio ID : 2 Format : AAC LC Format/Info : Advanced Audio Codec Low Complexity Codec ID : A_AAC-2 Duration : 45 min 28 s Bit rate : 125 kb/s Channel(s) : 2 channels Channel layout : L R Sampling rate : 48.0 kHz Frame rate : 46.875 FPS (1024 SPF) Compression mode : Lossy Stream size : 40.8 MiB (3%) Language : Japanese Default : Yes Forced : No
前天 23:17 日剧更新了
HD 1080p from official website. No watermark version. Japanese subtitles added. General Unique ID : 28287977555650405790383518171660461443 (0x154810F94D813380263B08888672A583) Complete name : [MagicStar] Ikemen-domo yo Meshi wo Kue EP12 END [WEBDL] [1080p].mkv Format : Matroska Format version : Version 4 File size : 336 MiB Duration : 22 min 49 s Overall bit rate mode : Variable Overall bit rate : 2 057 kb/s Writing application : Lavf57.48.101 Writing library : Lavf57.48.101 Video ID : 1 Format : AVC Format/Info : Advanced Video Codec Format profile : [email protected] Format settings : CABAC / 4 Ref Frames Format settings, CABAC : Yes Format settings, Reference fra : 4 frames Codec ID : V_MPEG4/ISO/AVC Duration : 22 min 49 s Bit rate mode : Variable Maximum bit rate : 2 801 kb/s Width : 1 920 pixels Height : 1 080 pixels Display aspect ratio : 16:9 Frame rate mode : Constant Frame rate : 29.970 (30000/1001) FPS Color space : YUV Chroma subsampling : 4:2:0 Bit depth : 8 bits Scan type : Progressive Default : Yes Forced : No Color range : Limited Color primaries : BT.709 Transfer characteristics : BT.709 Matrix coefficients : BT.709 Audio ID : 2 Format : AAC LC Format/Info : Advanced Audio Codec Low Complexity Codec ID : A_AAC-2 Duration : 22 min 49 s Channel(s) : 2 channels Channel layout : L R Sampling rate : 48.0 kHz Frame rate : 46.875 FPS (1024 SPF) Compression mode : Lossy Delay relative to video : -66 ms Default : Yes Forced : No
前天 23:17 日剧更新了
HD 1080p from Prime Video. Use CBR bitrate mode. Japanese subtitles added. Blu-ray Disc has been released on December 25, 2013. We are planning to upload all prime video japan Dramas and Movies, we need your Support! Support Us Ali (Zhifubao / QR code): https://i.ibb.co/FWV2ggm/1660626347125.png General Unique ID : 69249381116219949500499419260320431811 (0x3418F21792C8E29B1E513D1E26D33EC3) Complete name : Manatsu.no.Houteishiki.2013.1080p.AMZN.WEB-DL.DDP5.1.H.264-MagicStar.mkv Format : Matroska Format version : Version 4 File size : 7.65 GiB Duration : 2 h 8 min Overall bit rate mode : Constant Overall bit rate : 8 519 kb/s Encoded date : UTC 2022-09-21 13:17:16 Writing application : mkvmerge v50.0.0 ('Awakenings') 64-bit Writing library : libebml v1.4.0 + libmatroska v1.6.2 Cover : Yes Attachments : cover.png Video ID : 1 Format : AVC Format/Info : Advanced Video Codec Format profile : [email protected] Format settings : CABAC / 4 Ref Frames Format settings, CABAC : Yes Format settings, Reference fra : 4 frames Codec ID : V_MPEG4/ISO/AVC Duration : 2 h 8 min Bit rate mode : Constant Bit rate : 7 876 kb/s Nominal bit rate : 10 000 kb/s Width : 1 920 pixels Height : 1 080 pixels Display aspect ratio : 16:9 Frame rate mode : Constant Frame rate : 23.976 (24000/1001) FPS Color space : YUV Chroma subsampling : 4:2:0 Bit depth : 8 bits Scan type : Progressive Bits/(Pixel*Frame) : 0.158 Stream size : 7.07 GiB (92%) Default : Yes Forced : No Color range : Limited Color primaries : BT.709 Transfer characteristics : BT.709 Matrix coefficients : BT.709 Audio ID : 2 Format : E-AC-3 Format/Info : Enhanced AC-3 Commercial name : Dolby Digital Plus Codec ID : A_EAC3 Duration : 2 h 8 min Bit rate mode : Constant Bit rate : 640 kb/s Channel(s) : 6 channels Channel layout : L R C LFE Ls Rs Sampling rate : 48.0 kHz Frame rate : 31.250 FPS (1536 SPF) Compression mode : Lossy Stream size : 588 MiB (8%) Language : Japanese Service kind : Complete Main Default : Yes Forced : No
前天 23:17 日剧更新了
HD 1080p from FOD. Blu-ray Disc has been released on September 25, 2013. General Unique ID : 111342674877639318831808430381332259976 (0x53C3D1B4B3024C26DE9BDBF1184D6488) Complete name : Galileo.XX.1080p.FOD.WEB-DL.AAC2.0.H.264-MagicStar.mkv Format : Matroska Format version : Version 4 File size : 3.91 GiB Duration : 1 h 46 min Overall bit rate mode : Variable Overall bit rate : 5 260 kb/s Encoded date : UTC 2022-09-21 04:40:54 Writing application : mkvmerge v50.0.0 ('Awakenings') 64-bit Writing library : libebml v1.4.0 + libmatroska v1.6.2 Video ID : 1 Format : AVC Format/Info : Advanced Video Codec Format profile : [email protected] Format settings : CABAC / 2 Ref Frames Format settings, CABAC : Yes Format settings, Reference fra : 2 frames Codec ID : V_MPEG4/ISO/AVC Duration : 1 h 46 min Bit rate mode : Variable Bit rate : 5 065 kb/s Maximum bit rate : 15.0 Mb/s Width : 1 920 pixels Height : 1 080 pixels Display aspect ratio : 16:9 Frame rate mode : Constant Frame rate : 29.970 (29970/1000) FPS Original frame rate : 29.970 (30000/1001) FPS Color space : YUV Chroma subsampling : 4:2:0 Bit depth : 8 bits Scan type : Progressive Bits/(Pixel*Frame) : 0.082 Stream size : 3.77 GiB (96%) Default : Yes Forced : No Audio ID : 2 Format : AAC LC Format/Info : Advanced Audio Codec Low Complexity Codec ID : A_AAC-2 Duration : 1 h 46 min Bit rate : 192 kb/s Channel(s) : 2 channels Channel layout : L R Sampling rate : 48.0 kHz Frame rate : 46.875 FPS (1024 SPF) Compression mode : Lossy Stream size : 146 MiB (4%) Language : Japanese Default : Yes Forced : No
前天 23:17 日剧更新了
HD 1080p from FOD. Blu-ray Disc has been released on April 24, 2013. General Unique ID : 270358776148174961192787495541128863962 (0xCB6534CE2FE6409FB33DC73386D0A0DA) Complete name : Galileo.Episode.Zero.1080p.FOD.WEB-DL.AAC2.0.H.264-MagicStar.mkv Format : Matroska Format version : Version 4 File size : 3.37 GiB Duration : 1 h 40 min Overall bit rate mode : Variable Overall bit rate : 4 814 kb/s Encoded date : UTC 2022-09-21 04:08:16 Writing application : mkvmerge v50.0.0 ('Awakenings') 64-bit Writing library : libebml v1.4.0 + libmatroska v1.6.2 Video ID : 1 Format : AVC Format/Info : Advanced Video Codec Format profile : [email protected] Format settings : CABAC / 2 Ref Frames Format settings, CABAC : Yes Format settings, Reference fra : 2 frames Codec ID : V_MPEG4/ISO/AVC Duration : 1 h 40 min Bit rate mode : Variable Bit rate : 4 619 kb/s Maximum bit rate : 15.0 Mb/s Width : 1 920 pixels Height : 1 080 pixels Display aspect ratio : 16:9 Frame rate mode : Constant Frame rate : 29.970 (29970/1000) FPS Original frame rate : 29.970 (30000/1001) FPS Color space : YUV Chroma subsampling : 4:2:0 Bit depth : 8 bits Scan type : Progressive Bits/(Pixel*Frame) : 0.074 Stream size : 3.24 GiB (96%) Default : Yes Forced : No Audio ID : 2 Format : AAC LC Format/Info : Advanced Audio Codec Low Complexity Codec ID : A_AAC-2 Duration : 1 h 40 min Bit rate : 192 kb/s Channel(s) : 2 channels Channel layout : L R Sampling rate : 48.0 kHz Frame rate : 46.875 FPS (1024 SPF) Compression mode : Lossy Stream size : 138 MiB (4%) Language : Japanese Default : Yes Forced : No
前天 23:17 日剧更新了
HD 1080p from Prime Video. Use CBR bitrate mode. Japanese subtitles added. Blu-ray Disc has been released on March 18, 2009. We are planning to upload all prime video japan Dramas and Movies, we need your Support! Support Us Ali (Zhifubao / QR code): https://i.ibb.co/FWV2ggm/1660626347125.png General Unique ID : 311777879515251906938089906949278525874 (0xEA8E3C44325621A9F9CB330D683DE9B2) Complete name : Yougisha.X.no.Kenshin.2008.1080p.AMZN.WEB-DL.DDP5.1.H.264-MagicStar.mkv Format : Matroska Format version : Version 4 File size : 8.83 GiB Duration : 2 h 8 min Overall bit rate mode : Constant Overall bit rate : 9 853 kb/s Encoded date : UTC 2022-09-21 14:37:21 Writing application : mkvmerge v50.0.0 ('Awakenings') 64-bit Writing library : libebml v1.4.0 + libmatroska v1.6.2 Cover : Yes Attachments : cover.png Video ID : 1 Format : AVC Format/Info : Advanced Video Codec Format profile : [email protected] Format settings : CABAC / 4 Ref Frames Format settings, CABAC : Yes Format settings, Reference fra : 4 frames Codec ID : V_MPEG4/ISO/AVC Duration : 2 h 8 min Bit rate mode : Constant Bit rate : 9 210 kb/s Nominal bit rate : 10 000 kb/s Width : 1 920 pixels Height : 1 080 pixels Display aspect ratio : 16:9 Frame rate mode : Constant Frame rate : 23.976 (24000/1001) FPS Color space : YUV Chroma subsampling : 4:2:0 Bit depth : 8 bits Scan type : Progressive Bits/(Pixel*Frame) : 0.185 Stream size : 8.25 GiB (93%) Default : Yes Forced : No Color range : Limited Color primaries : BT.709 Transfer characteristics : BT.709 Matrix coefficients : BT.709 Audio ID : 2 Format : E-AC-3 Format/Info : Enhanced AC-3 Commercial name : Dolby Digital Plus Codec ID : A_EAC3 Duration : 2 h 8 min Bit rate mode : Constant Bit rate : 640 kb/s Channel(s) : 6 channels Channel layout : L R C LFE Ls Rs Sampling rate : 48.0 kHz Frame rate : 31.250 FPS (1536 SPF) Compression mode : Lossy Stream size : 587 MiB (6%) Language : Japanese Service kind : Complete Main Default : Yes Forced : No
前天 23:17 日剧更新了
HD 1080p from Prime Video. Use CBR bitrate mode. Japanese subtitles added. We are planning to upload all prime video japan Dramas and Movies, we need your Support! Support Us Ali (Zhifubao / QR code): https://i.ibb.co/FWV2ggm/1660626347125.png General Unique ID : 174799765222502288580045885856716065038 (0x838135D069DADDF19F45B7756656890E) Complete name : OTHELLO.EP07.1080p.AMZN.WEB-DL.DDP2.0.H.264-MagicStar.mkv Format : Matroska Format version : Version 2 File size : 1.45 GiB Duration : 23 min 30 s Overall bit rate mode : Constant Overall bit rate : 8 838 kb/s Encoded date : UTC 2022-09-27 09:17:05 Writing application : mkvmerge v8.5.2 ('Crosses') 32bit Writing library : libebml v1.3.3 + libmatroska v1.4.4 Video ID : 1 Format : AVC Format/Info : Advanced Video Codec Format profile : [email protected] Format settings : CABAC / 4 Ref Frames Format settings, CABAC : Yes Format settings, Reference fra : 4 frames Codec ID : V_MPEG4/ISO/AVC Duration : 23 min 30 s Bit rate mode : Constant Bit rate : 8 612 kb/s Nominal bit rate : 10 000 kb/s Width : 1 920 pixels Height : 1 080 pixels Display aspect ratio : 16:9 Frame rate mode : Constant Frame rate : 29.970 (30000/1001) FPS Color space : YUV Chroma subsampling : 4:2:0 Bit depth : 8 bits Scan type : Progressive Bits/(Pixel*Frame) : 0.139 Stream size : 1.41 GiB (97%) Default : Yes Forced : No Color range : Limited Color primaries : BT.709 Transfer characteristics : BT.709 Matrix coefficients : BT.709 Audio ID : 2 Format : E-AC-3 Format/Info : Enhanced AC-3 Commercial name : Dolby Digital Plus Codec ID : A_EAC3 Duration : 23 min 30 s Bit rate mode : Constant Bit rate : 224 kb/s Channel(s) : 2 channels Channel layout : L R Sampling rate : 48.0 kHz Frame rate : 31.250 FPS (1536 SPF) Compression mode : Lossy Stream size : 37.7 MiB (3%) Language : Japanese Service kind : Complete Main Default : Yes Forced : No
前天 23:17 日剧更新了
HD 1080p from HULU JAPAN. General Unique ID : 229294101830830046388502810038742756620 (0xAC80700BB6B64D5F651E5D0817132D0C) Complete name : Kanojo.Okarishimasu.EP10.1080p.HULU.WEB-DL.AAC2.0.H.264-MagicStar.mkv Format : Matroska Format version : Version 4 File size : 676 MiB Duration : 23 min 15 s Overall bit rate : 4 067 kb/s Encoded date : UTC 2022-09-27 09:09:22 Writing application : mkvmerge v50.0.0 ('Awakenings') 64-bit Writing library : libebml v1.4.0 + libmatroska v1.6.2 Cover : Yes Attachments : cover.png Video ID : 1 Format : AVC Format/Info : Advanced Video Codec Format profile : [email protected] Format settings : CABAC / 4 Ref Frames Format settings, CABAC : Yes Format settings, Reference fra : 4 frames Codec ID : V_MPEG4/ISO/AVC Duration : 23 min 14 s Bit rate : 3 938 kb/s Width : 1 920 pixels Height : 1 080 pixels Display aspect ratio : 16:9 Frame rate mode : Constant Frame rate : 29.970 (29970/1000) FPS Original frame rate : 29.970 (30000/1001) FPS Color space : YUV Chroma subsampling : 4:2:0 Bit depth : 8 bits Scan type : Progressive Bits/(Pixel*Frame) : 0.063 Stream size : 655 MiB (97%) Default : Yes Forced : No Color range : Limited Color primaries : BT.709 Transfer characteristics : BT.709 Matrix coefficients : BT.709 Audio ID : 2 Format : AAC LC Format/Info : Advanced Audio Codec Low Complexity Codec ID : A_AAC-2 Duration : 23 min 15 s Bit rate : 125 kb/s Channel(s) : 2 channels Channel layout : L R Sampling rate : 48.0 kHz Frame rate : 46.875 FPS (1024 SPF) Compression mode : Lossy Stream size : 20.9 MiB (3%) Language : Japanese Default : Yes Forced : No
前天 23:17 日剧更新了
HD 1080p from FOD. Japanese subtitles added. General Unique ID : 268451266794962732291896476411293673790 (0xC9F5D5554E3D8803B0A66B2EC6D9293E) Complete name : Galileo.SP.Kindan.no.Majutsu.1080p.FOD.WEB-DL.AAC2.0.H.264-MagicStar.mkv Format : Matroska Format version : Version 4 File size : 4.46 GiB Duration : 1 h 46 min Overall bit rate mode : Variable Overall bit rate : 5 997 kb/s Encoded date : UTC 2022-09-19 20:05:26 Writing application : mkvmerge v50.0.0 ('Awakenings') 64-bit Writing library : libebml v1.4.0 + libmatroska v1.6.2 Video ID : 1 Format : AVC Format/Info : Advanced Video Codec Format profile : [email protected] Format settings : CABAC / 2 Ref Frames Format settings, CABAC : Yes Format settings, Reference fra : 2 frames Codec ID : V_MPEG4/ISO/AVC Duration : 1 h 46 min Bit rate mode : Variable Bit rate : 5 802 kb/s Maximum bit rate : 15.0 Mb/s Width : 1 920 pixels Height : 1 080 pixels Display aspect ratio : 16:9 Frame rate mode : Constant Frame rate : 29.970 (29970/1000) FPS Original frame rate : 29.970 (30000/1001) FPS Color space : YUV Chroma subsampling : 4:2:0 Bit depth : 8 bits Scan type : Progressive Bits/(Pixel*Frame) : 0.093 Stream size : 4.31 GiB (97%) Default : Yes Forced : No Color range : Limited Color primaries : BT.709 Transfer characteristics : BT.709 Matrix coefficients : BT.709 Audio ID : 2 Format : AAC LC Format/Info : Advanced Audio Codec Low Complexity Codec ID : A_AAC-2 Duration : 1 h 46 min Bit rate : 192 kb/s Channel(s) : 2 channels Channel layout : L R Sampling rate : 48.0 kHz Frame rate : 46.875 FPS (1024 SPF) Compression mode : Lossy Stream size : 146 MiB (3%) Language : Japanese Default : Yes Forced : No
前天 23:17 日剧更新了