首页 » 日剧 » 【2020日影】[MagicStar] 五代友厚 / 天外者 [WEBDL] [1080p] [AMZN]【生】【附日字】
  • 资源分类:BT分享»日剧
  • 资源提供:日剧更新了
  • 分享情况:  种子:18,下载:230,完成:53
  • 健  康  度:33%
  • 文件大小:4.7GB  (查看文件详情)
  • 发布日期:2022/08/06 16:38:00
  • 下载本站资源,您必须安装相应的P2P下载软件。我们推荐使用BitComet正式版下载BT资源,eMule下载电驴资源。
  • 该资源由网友 日剧更新了 提供,分享目的仅供大家学习与参考,如有侵权,请联系:[email protected]及时删除!

资源介绍 | 下载本资源


HD 1080p from Prime Video.
Use CBR bitrate mode. Japanese subtitles added.

alt text

alt text

General Unique ID                      : 277415178938139351602516341633747998498 (0xD0B43852DDF5E3F013EF9155C7D35722) Complete name                  : Tengaramon.2020.1080p.AMZN.WEB-DL.DDP5.1.H.264-MagicStar.mkv Format                         : Matroska Format version                 : Version 4 File size                      : 4.67 GiB Duration                       : 1 h 49 min Overall bit rate mode          : Constant Overall bit rate               : 6 076 kb/s Encoded date                   : UTC 2022-08-05 20:49:38 Writing application            : mkvmerge v50.0.0 ('Awakenings') 64-bit Writing library                : libebml v1.4.0 + libmatroska v1.6.2 Cover                          : Yes Attachments                    : cover.png  Video ID                             : 1 Format                         : AVC Format/Info                    : Advanced Video Codec Format profile                 : [email protected] Format settings                : CABAC / 4 Ref Frames Format settings, CABAC         : Yes Format settings, Reference fra : 4 frames Codec ID                       : V_MPEG4/ISO/AVC Duration                       : 1 h 49 min Bit rate mode                  : Constant Bit rate                       : 5 432 kb/s Nominal bit rate               : 10 000 kb/s Width                          : 1 920 pixels Height                         : 800 pixels Display aspect ratio           : 2.40:1 Frame rate mode                : Constant Frame rate                     : 23.976 (24000/1001) FPS Color space                    : YUV Chroma subsampling             : 4:2:0 Bit depth                      : 8 bits Scan type                      : Progressive Bits/(Pixel*Frame)             : 0.147 Stream size                    : 4.17 GiB (89%) Default                        : Yes Forced                         : No Color range                    : Limited Color primaries                : BT.709 Transfer characteristics       : BT.709 Matrix coefficients            : BT.709  Audio ID                             : 2 Format                         : E-AC-3 Format/Info                    : Enhanced AC-3 Commercial name                : Dolby Digital Plus Codec ID                       : A_EAC3 Duration                       : 1 h 49 min Bit rate mode                  : Constant Bit rate                       : 640 kb/s Channel(s)                     : 6 channels Channel layout                 : L R C LFE Ls Rs Sampling rate                  : 48.0 kHz Frame rate                     : 31.250 FPS (1536 SPF) Compression mode               : Lossy Stream size                    : 503 MiB (11%) Language                       : Japanese Service kind                   : Complete Main Default                        : Yes Forced                         : No

文件信息 | 下载本资源 文件总数:2,文件总大小:4.7GB

Info Hash:e0a916f6e64cd2ad70e5a13ea71333e1a33a93ba

文件信息:2 个文件, 总大小 4.7GB

Tracker:http://tracker.xfapi.top:6868/announce

Tracker:http://tracker.xfapi.top:6868/scrape

 
  • [MagicStar] Tengaramon 2020 [WEBDL] [1080p] [AMZN] [JPN_SUB]
    • Tengaramon.2020.1080p.AMZN.WEB-DL.DDP5.1.H.264-MagicStar.mkv(4.7GB)
    • Tengaramon.2020.1080p.AMZN.WEB-DL.DDP5.1.H.264-MagicStar.srt(77.8KB)
 

网友评论(0) | 下载本资源

正在加载评论,请稍候......
发表我的看法(评论内容长度最多允许 1000 字)
评论内容
  
发表评论小贴士:
1.类似「顶、沙发」之类没有营养的文字,对勤劳贡献的发布者来说是令人沮丧的反馈信息。
2.提问之前请再仔细看一遍楼主的说明,或许是您遗漏了。
3.勿催片。请相信动漫字幕组对分享是富有激情的,如果确有更新资源,您一定能搜索到。
4.请勿到处挖坑绊人、招贴广告。既占空间让人厌烦,又没人会搭理,于人于己都无利。
5.如果您发现自己的评论不见了,请参考以上4条。
验证码