首页 » 日剧 » [MagicStar] 女神的教室 ~律政青春白皮书~ / 女神の教室 ~リーガル青春白書~ EP03 [WEBDL] [1080p] [FOD]【生】【附日字&解说放送版音轨】
  • 资源分类:BT分享»日剧
  • 资源提供:日剧更新了
  • 分享情况:  种子:10,下载:192,完成:57
  • 健  康  度:13%
  • 文件大小:1.3GB  (查看文件详情)
  • 发布日期:2023/01/25 17:57:24
  • 下载本站资源,您必须安装相应的P2P下载软件。我们推荐使用BitComet正式版下载BT资源,eMule下载电驴资源。
  • 该资源由网友 日剧更新了 提供,分享目的仅供大家学习与参考,如有侵权,请联系:[email protected]及时删除!

资源介绍 | 下载本资源


HD 1080p from FOD.
Japanese subtitles added.
Audio description added.
alt text
alt text

General Unique ID                      : 313992089112755557817947038993076089068 (0xEC38AD3A6545FE89F0962D087E0270EC) Complete name                  : Themis.no.Kyoushitsu.Legal.Seishun.Hakusho.EP03.1080p.FOD.WEB-DL.AAC2.0.H.264-MagicStar.mkv Format                         : Matroska Format version                 : Version 4 File size                      : 1.30 GiB Duration                       : 46 min 8 s Overall bit rate mode          : Variable Overall bit rate               : 4 029 kb/s Encoded date                   : UTC 2023-01-25 01:54:46 Writing application            : mkvmerge v50.0.0 ('Awakenings') 64-bit Writing library                : libebml v1.4.0 + libmatroska v1.6.2  Video ID                             : 1 Format                         : AVC Format/Info                    : Advanced Video Codec Format profile                 : [email protected] Format settings                : CABAC / 2 Ref Frames Format settings, CABAC         : Yes Format settings, Reference fra : 2 frames Codec ID                       : V_MPEG4/ISO/AVC Duration                       : 46 min 8 s Bit rate mode                  : Variable Bit rate                       : 3 641 kb/s Maximum bit rate               : 15.0 Mb/s Width                          : 1 920 pixels Height                         : 1 080 pixels Display aspect ratio           : 16:9 Frame rate mode                : Constant Frame rate                     : 29.970 (29970/1000) FPS Original frame rate            : 29.970 (30000/1001) FPS Color space                    : YUV Chroma subsampling             : 4:2:0 Bit depth                      : 8 bits Scan type                      : Progressive Bits/(Pixel*Frame)             : 0.059 Stream size                    : 1.17 GiB (90%) Default                        : Yes Forced                         : No Color range                    : Limited Color primaries                : BT.709 Transfer characteristics       : BT.709 Matrix coefficients            : BT.709  Audio #1 ID                             : 2 Format                         : AAC LC Format/Info                    : Advanced Audio Codec Low Complexity Codec ID                       : A_AAC-2 Duration                       : 46 min 8 s Bit rate                       : 192 kb/s Channel(s)                     : 2 channels Channel layout                 : L R Sampling rate                  : 48.0 kHz Frame rate                     : 46.875 FPS (1024 SPF) Compression mode               : Lossy Stream size                    : 63.4 MiB (5%) Title                          : 日本語 [オリジナル] Language                       : Japanese Default                        : Yes Forced                         : No  Audio #2 ID                             : 3 Format                         : AAC LC Format/Info                    : Advanced Audio Codec Low Complexity Codec ID                       : A_AAC-2 Duration                       : 46 min 8 s Bit rate                       : 192 kb/s Channel(s)                     : 2 channels Channel layout                 : L R Sampling rate                  : 48.0 kHz Frame rate                     : 46.875 FPS (1024 SPF) Compression mode               : Lossy Stream size                    : 63.4 MiB (5%) Title                          : 日本語 [解説放送音声] Language                       : Japanese Default                        : No Forced                         : No

文件信息 | 下载本资源 文件总数:2,文件总大小:1.3GB

Info Hash:dba9623618b817c8fb680cd139e1d3ffd643863a

文件信息:2 个文件, 总大小 1.3GB

Tracker:http://tracker.xfapi.top:6868/announce

Tracker:http://tracker.xfapi.top:6868/scrape

 
  • [MagicStar] Themis no Kyoushitsu ~Legal Seishun Hakusho~ EP03 [WEBDL] [1080p] [FOD] [JPN_SUB]
    • Themis.no.Kyoushitsu.Legal.Seishun.Hakusho.EP03.1080p.FOD.WEB-DL.AAC2.0.H.264-MagicStar.mkv(1.3GB)
    • Themis.no.Kyoushitsu.Legal.Seishun.Hakusho.EP03.1080p.FOD.WEB-DL.AAC2.0.H.264-MagicStar.srt(61.8KB)
 

网友评论(0) | 下载本资源

正在加载评论,请稍候......
发表我的看法(评论内容长度最多允许 1000 字)
评论内容
  
发表评论小贴士:
1.类似「顶、沙发」之类没有营养的文字,对勤劳贡献的发布者来说是令人沮丧的反馈信息。
2.提问之前请再仔细看一遍楼主的说明,或许是您遗漏了。
3.勿催片。请相信动漫字幕组对分享是富有激情的,如果确有更新资源,您一定能搜索到。
4.请勿到处挖坑绊人、招贴广告。既占空间让人厌烦,又没人会搭理,于人于己都无利。
5.如果您发现自己的评论不见了,请参考以上4条。
验证码