首页 » 动画 » 幽游白书外传 / Yu Yu Hakusho OVA 2018 25th Anniversary JPN Blu-ray Remux 1080p AVC LPCM 2.0
  • 资源分类:BT分享»动画
  • 资源提供:动画更新员
  • 分享情况:  种子:17,下载:83,完成:42
  • 健  康  度:20%
  • 文件大小:7.7GB  (查看文件详情)
  • 发布日期:2020/02/15 12:10:16
  • 下载本站资源,您必须安装相应的P2P下载软件。我们推荐使用BitComet正式版下载BT资源,eMule下载电驴资源。
  • 该资源由网友 动画更新员 提供,分享目的仅供大家学习与参考,如有侵权,请联系:[email protected]及时删除!

资源介绍 | 下载本资源


BD BOX 1 thanks to [email protected] BOX 2, 3 and 4 thanks to [email protected]
Blu-ray BOX:https://nyaa.si/view/1173147

幽☆遊☆白書 完全新作アニメーション「TWO SHOTS」「のるか そるか」
中文字幕:https://assrt.net/xml/sub/626/626626.xml
自己批量改名、改字体、转繁体……

General
Complete name : Yu Yu Hakusho OVA.mkv
Format : Matroska
Format version : Version 4
File size : 7.75 GiB
Duration : 28 min 57 s
Overall bit rate mode : Variable
Overall bit rate : 38.3 Mb/s

Video
ID : 1
Format : AVC
Format/Info : Advanced Video Codec
Format profile : [email protected]
Format settings : CABAC / 4 Ref Frames
Format settings, CABAC : Yes
Format settings, Reference fra : 4 frames
Codec ID : V_MPEG4/ISO/AVC
Duration : 28 min 57 s
Bit rate mode : Variable
Bit rate : 36.0 Mb/s
Maximum bit rate : 40.0 Mb/s
Width : 1 920 pixels
Height : 1 080 pixels
Display aspect ratio : 16:9
Frame rate mode : Constant
Frame rate : 23.976 (24000/1001) FPS
Color space : YUV
Chroma subsampling : 4:2:0
Bit depth : 8 bits
Scan type : Progressive
Bits/(Pixel*Frame) : 0.724
Stream size : 7.28 GiB (94%)
Default : Yes
Forced : No

Audio
ID : 2
Format : PCM
Format settings : Little / Signed
Codec ID : A_PCM/INT/LIT
Duration : 28 min 57 s
Bit rate mode : Constant
Bit rate : 2 304 kb/s
Channel(s) : 2 channels
Sampling rate : 48.0 kHz
Frame rate : 200.000 FPS (240 SPF)
Bit depth : 24 bits
Stream size : 477 MiB (6%)
Language : Japanese
Default : Yes
Forced : No

Menu
00:00:00.000 : en:Chapter 01
00:00:57.682 : en:Chapter 02
00:13:07.787 : en:Chapter 03
00:13:49.786 : en:Chapter 04
00:27:12.631 : en:Chapter 05


文件信息 | 下载本资源 文件总数:1,文件总大小:7.7GB

Info Hash:9e026ebe8ddf86947b844b99d32a7930a79abb4e

文件信息:1 个文件, 总大小 7.7GB

Tracker:http://tracker.xfapi.top:6868/announce

Tracker:http://tracker.xfapi.top:6868/scrape

 
  • Yu Yu Hakusho OVA.mkv(7.7GB)
 

网友评论(0) | 下载本资源

正在加载评论,请稍候......
发表我的看法(评论内容长度最多允许 1000 字)
评论内容
  
发表评论小贴士:
1.类似「顶、沙发」之类没有营养的文字,对勤劳贡献的发布者来说是令人沮丧的反馈信息。
2.提问之前请再仔细看一遍楼主的说明,或许是您遗漏了。
3.勿催片。请相信动漫字幕组对分享是富有激情的,如果确有更新资源,您一定能搜索到。
4.请勿到处挖坑绊人、招贴广告。既占空间让人厌烦,又没人会搭理,于人于己都无利。
5.如果您发现自己的评论不见了,请参考以上4条。
验证码