首页 » 日剧 » [MagicStar] 兄弟陷阱 / ブラザー・トラップ EP02 [WEBDL] [1080p] [U-NEXT]【生】
  • 资源分类:BT分享»日剧
  • 资源提供:日剧更新了
  • 分享情况:  种子:10,下载:253,完成:35
  • 健  康  度:43%
  • 文件大小:600.8MB  (查看文件详情)
  • 发布日期:2023/01/25 17:57:27
  • 下载本站资源,您必须安装相应的P2P下载软件。我们推荐使用BitComet正式版下载BT资源,eMule下载电驴资源。
  • 该资源由网友 日剧更新了 提供,分享目的仅供大家学习与参考,如有侵权,请联系:[email protected]及时删除!

资源介绍 | 下载本资源


HD 1080p from U-NEXT.
Started to support U-NEXT, but it’s still in the testing stage.


We are planning to upload all U-NEXT Dramas and Movies, we need your Support!


Support Us

Ali (Zhifubao / QR code):https://i.ibb.co/FWV2ggm/1660626347125.png
PayPalMe:https://www.paypal.com/paypalme/sakuragikenji


alt text
alt text

General Unique ID                      : 107225079634106245428949691962412186936 (0x50AACC961EF32D3899831A87C5EF3D38) Complete name                  : Brother.Trap.EP02.1080p.U-NEXT.WEB-DL.AAC2.0.H.264-MagicStar.mkv Format                         : Matroska Format version                 : Version 4 File size                      : 601 MiB Duration                       : 20 min 17 s Overall bit rate               : 4 138 kb/s Encoded date                   : UTC 2023-01-25 01:27:48 Writing application            : mkvmerge v50.0.0 ('Awakenings') 64-bit Writing library                : libebml v1.4.0 + libmatroska v1.6.2 Cover                          : Yes Attachments                    : cover.png  Video ID                             : 1 Format                         : AVC Format/Info                    : Advanced Video Codec Format profile                 : [email protected] Format settings                : CABAC / 2 Ref Frames Format settings, CABAC         : Yes Format settings, Reference fra : 2 frames Codec ID                       : V_MPEG4/ISO/AVC Duration                       : 20 min 17 s Bit rate                       : 4 020 kb/s Width                          : 1 920 pixels Height                         : 1 080 pixels Display aspect ratio           : 16:9 Frame rate mode                : Constant Frame rate                     : 23.976 (24000/1001) FPS Original frame rate            : 23.976 (23976/1000) FPS Color space                    : YUV Chroma subsampling             : 4:2:0 Bit depth                      : 8 bits Scan type                      : Progressive Bits/(Pixel*Frame)             : 0.081 Stream size                    : 582 MiB (97%) Writing library                : x264 core 148 r2665kMod a01e339 Encoding settings              : cabac=1 / ref=2 / deblock=1:1:1 / analyse=0x1:0x111 / me=tesa / subme=11 / psy=1 / fade_compensate=0.00 / psy_rd=0.40:0.10 / mixed_ref=1 / me_range=48 / chroma_me=1 / trellis=2 / 8x8dct=0 / cqm=0 / deadzone=21,11 / fast_pskip=1 / chroma_qp_offset=-3 / threads=12 / lookahead_threads=1 / sliced_threads=0 / nr=0 / decimate=1 / interlaced=0 / bluray_compat=0 / constrained_intra=0 / fgo=0 / bframes=2 / b_pyramid=0 / b_adapt=2 / b_bias=0 / direct=3 / weightb=1 / open_gop=0 / weightp=2 / keyint=48 / keyint_min=25 / scenecut=0 / intra_refresh=0 / rc_lookahead=48 / rc=2pass / mbtree=1 / bitrate=4020 / ratetol=1.0 / qcomp=0.80 / qpmin=10 / qpmax=69 / qpstep=15 / cplxblur=20.0 / qblur=0.5 / vbv_maxrate=8050 / vbv_bufsize=8050 / nal_hrd=none / filler=0 / ip_ratio=1.40 / aq=2:0.60 Default                        : Yes Forced                         : No  Audio ID                             : 2 Format                         : AAC LC Format/Info                    : Advanced Audio Codec Low Complexity Codec ID                       : A_AAC-2 Duration                       : 20 min 17 s Bit rate                       : 125 kb/s Channel(s)                     : 2 channels Channel layout                 : L R Sampling rate                  : 48.0 kHz Frame rate                     : 46.875 FPS (1024 SPF) Compression mode               : Lossy Stream size                    : 18.2 MiB (3%) Title                          : 日本語 [オリジナル] Language                       : Japanese Default                        : Yes Forced                         : No

文件信息 | 下载本资源 文件总数:1,文件总大小:600.8MB

Info Hash:2e8ae833b17d7b1ce3bd208216a08fa9b99c6580

文件信息:1 个文件, 总大小 600.8MB

Tracker:http://tracker.xfapi.top:6868/announce

Tracker:http://tracker.xfapi.top:6868/scrape

 
  • [MagicStar] Brother Trap EP02 [WEBDL] [1080p] [U-NEXT]
    • Brother.Trap.EP02.1080p.U-NEXT.WEB-DL.AAC2.0.H.264-MagicStar.mkv(600.8MB)
 

网友评论(0) | 下载本资源

正在加载评论,请稍候......
发表我的看法(评论内容长度最多允许 1000 字)
评论内容
  
发表评论小贴士:
1.类似「顶、沙发」之类没有营养的文字,对勤劳贡献的发布者来说是令人沮丧的反馈信息。
2.提问之前请再仔细看一遍楼主的说明,或许是您遗漏了。
3.勿催片。请相信动漫字幕组对分享是富有激情的,如果确有更新资源,您一定能搜索到。
4.请勿到处挖坑绊人、招贴广告。既占空间让人厌烦,又没人会搭理,于人于己都无利。
5.如果您发现自己的评论不见了,请参考以上4条。
验证码