首页 » 日剧 » [MagicStar] 就是想说喜欢你 / つまり好きって言いたいんだけど EP02 [WEBDL] [1080p] [PARAVI]【生】
  • 资源分类:BT分享»日剧
  • 资源提供:日剧更新了
  • 分享情况:  种子:15,下载:148,完成:55
  • 健  康  度:16%
  • 文件大小:906.5MB  (查看文件详情)
  • 发布日期:2021/10/12 18:35:57
  • 下载本站资源,您必须安装相应的P2P下载软件。我们推荐使用BitComet正式版下载BT资源,eMule下载电驴资源。
  • 该资源由网友 日剧更新了 提供,分享目的仅供大家学习与参考,如有侵权,请联系:[email protected]及时删除!

资源介绍 | 下载本资源


HD 1080p from Paravi.
alt text
alt text

General Unique ID                      : 125405307292246043054095302291187905623 (0x5E582F03AE68C010CE2F826D96813457) Complete name                  : Tsumari.Sukitte.Iitain.dakedo.EP02.1080p.PARAVI.WEB-DL.AAC2.0.H.264-MagicStar.mkv Format                         : Matroska Format version                 : Version 4 File size                      : 907 MiB Duration                       : 25 min 0 s Overall bit rate               : 5 069 kb/s Encoded date                   : UTC 2021-10-12 00:15:35 Writing application            : mkvmerge v50.0.0 ('Awakenings') 64-bit Writing library                : libebml v1.4.0 + libmatroska v1.6.2 Cover                          : Yes Attachments                    : cover.png  Video ID                             : 1 Format                         : AVC Format/Info                    : Advanced Video Codec Format profile                 : [email protected] Format settings                : CABAC / 3 Ref Frames Format settings, CABAC         : Yes Format settings, Reference fra : 3 frames Format settings, GOP           : M=1, N=30 Codec ID                       : V_MPEG4/ISO/AVC Duration                       : 25 min 0 s Bit rate                       : 4 998 kb/s Width                          : 1 920 pixels Height                         : 1 080 pixels Display aspect ratio           : 16:9 Frame rate mode                : Constant Frame rate                     : 29.970 (29970/1000) FPS Original frame rate            : 29.970 (30000/1001) FPS Color space                    : YUV Chroma subsampling             : 4:2:0 Bit depth                      : 8 bits Scan type                      : Progressive Bits/(Pixel*Frame)             : 0.080 Stream size                    : 894 MiB (99%) Default                        : Yes Forced                         : No  Audio ID                             : 2 Format                         : AAC LC Format/Info                    : Advanced Audio Codec Low Complexity Codec ID                       : A_AAC-2 Duration                       : 25 min 0 s Bit rate                       : 64.0 kb/s Channel(s)                     : 2 channels Channel layout                 : L R Sampling rate                  : 48.0 kHz Frame rate                     : 46.875 FPS (1024 SPF) Compression mode               : Lossy Stream size                    : 11.4 MiB (1%) Language                       : Japanese Default                        : Yes Forced                         : No

文件信息 | 下载本资源 文件总数:1,文件总大小:906.5MB

Info Hash:0ce4ff61ec54f6d79437123204aa8102bb165cd1

文件信息:1 个文件, 总大小 906.5MB

Tracker:http://tracker.xfapi.top:6868/announce

Tracker:http://tracker.xfapi.top:6868/scrape

 
  • [MagicStar] Tsumari Sukitte Iitain dakedo, EP02 [WEBDL] [1080p] [PARAVI]
    • Tsumari.Sukitte.Iitain.dakedo.EP02.1080p.PARAVI.WEB-DL.AAC2.0.H.264-MagicStar.mkv(906.5MB)
 

网友评论(0) | 下载本资源

正在加载评论,请稍候......
发表我的看法(评论内容长度最多允许 1000 字)
评论内容
  
发表评论小贴士:
1.类似「顶、沙发」之类没有营养的文字,对勤劳贡献的发布者来说是令人沮丧的反馈信息。
2.提问之前请再仔细看一遍楼主的说明,或许是您遗漏了。
3.勿催片。请相信动漫字幕组对分享是富有激情的,如果确有更新资源,您一定能搜索到。
4.请勿到处挖坑绊人、招贴广告。既占空间让人厌烦,又没人会搭理,于人于己都无利。
5.如果您发现自己的评论不见了,请参考以上4条。
验证码