旋风动漫BT资源发布索引 | 汇聚动漫BT/ED资源
为您找到相关结果个     结果不正确?请到这里反馈!
【名称】 機動戦士ガンダム 水星の魔女 / 机动战士高达 水星的魔女 Mobile Suit Gundam The Witch from Mercury 【官網】 https://g-witch.net/ 【STAFF】 原作: 矢立肇/富野由悠季 导演: 小林寛 脚本: 大河内一楼 音乐: 大間々昂 人物原案: モグモ 人物设定: 田頭真理恵、戸井田珠里、高谷浩利 系列构成: 大河内一楼 美术监督: 佐藤歩 色彩设计: 菊地和子 机械设定: 柳瀬敬之、寺岡賢司、形部一平、海老川兼武、JNTHED、稲田航 原画: (主机械作画:久壽米木信弥、鈴木勘太、前田清明) 剪辑: 重村建吾 主题歌演出: YOASOBI 企画: サンライズ 製作: 毎日放送、創通、バンダイナムコフィルムワークス 音响监督: 明田川仁 动画制作: サンライズ 美术设计: 玉盛順一朗、岡田有章、上津康義、森岡賢一、金平和茂 副导演: 安藤良 【CAST】 スレッタ・マーキュリー:市ノ瀬加那 ミオリネ・レンブラン:Lynn グエル・ジェターク:阿座上洋平 エラン・ケレス:花江夏樹 シャディク・ゼネリ:古川 慎 ニカ・ナナウラ:宮本侑芽 チュアチュリー・パンランチ:富田美憂 【介绍】 星元122年―― 在众多企业扩展到宇宙并构筑巨大经济圈的时代 有一名少女自边境地区·水星转来MS产业的最大企业 "贝纳里特集团"旗下所经营的"阿斯提卡西亚高等专门学园" 她名为苏莱塔·墨丘利 内心纯真的少女随着胸口鲜红的闪烁亮光逐步迈向新世界 【shinの部屋】 如今很多在线网站都配了中文字幕 考虑了一下还是做一版吧 算是高达老粉的一点念想 也希望这个动画系列有朝一日能复兴 另外,都是老年人了,速度不太能保证 不出意外还是能做完的 【字幕分享】 https://sub.popgo.org/ 【漫游字幕组招聘启事】 翻译:懂日文,懂中文,有根性。 时间:会使用popsub或其他字幕软件。 压制:对影音转制有一定经验,有钻研精神。 特效:熟悉ass或ae特效制作。 片源:网速好,会使用p2p软件,在日本能自录raw更佳 【应募方法】 请申请加QQ群 573697635 记得说明想要应募的职位
昨天 07:31 动画更新员
【名称】 機動戦士ガンダム 水星の魔女 / 机动战士高达 水星的魔女 Mobile Suit Gundam The Witch from Mercury 【官網】 https://g-witch.net/ 【STAFF】 原作: 矢立肇/富野由悠季 导演: 小林寛 脚本: 大河内一楼 音乐: 大間々昂 人物原案: モグモ 人物设定: 田頭真理恵、戸井田珠里、高谷浩利 系列构成: 大河内一楼 美术监督: 佐藤歩 色彩设计: 菊地和子 机械设定: 柳瀬敬之、寺岡賢司、形部一平、海老川兼武、JNTHED、稲田航 原画: (主机械作画:久壽米木信弥、鈴木勘太、前田清明) 剪辑: 重村建吾 主题歌演出: YOASOBI 企画: サンライズ 製作: 毎日放送、創通、バンダイナムコフィルムワークス 音响监督: 明田川仁 动画制作: サンライズ 美术设计: 玉盛順一朗、岡田有章、上津康義、森岡賢一、金平和茂 副导演: 安藤良 【CAST】 スレッタ・マーキュリー:市ノ瀬加那 ミオリネ・レンブラン:Lynn グエル・ジェターク:阿座上洋平 エラン・ケレス:花江夏樹 シャディク・ゼネリ:古川 慎 ニカ・ナナウラ:宮本侑芽 チュアチュリー・パンランチ:富田美憂 【介绍】 星元122年―― 在众多企业扩展到宇宙并构筑巨大经济圈的时代 有一名少女自边境地区·水星转来MS产业的最大企业 "贝纳里特集团"旗下所经营的"阿斯提卡西亚高等专门学园" 她名为苏莱塔·墨丘利 内心纯真的少女随着胸口鲜红的闪烁亮光逐步迈向新世界 【shinの部屋】 如今很多在线网站都配了中文字幕 考虑了一下还是做一版吧 算是高达老粉的一点念想 也希望这个动画系列有朝一日能复兴 另外,都是老年人了,速度不太能保证 不出意外还是能做完的 外挂先弄完了先发 内嵌版稍等 【字幕分享】 https://sub.popgo.org/ 【漫游字幕组招聘启事】 翻译:懂日文,懂中文,有根性。 时间:会使用popsub或其他字幕软件。 压制:对影音转制有一定经验,有钻研精神。 特效:熟悉ass或ae特效制作。 片源:网速好,会使用p2p软件,在日本能自录raw更佳 【应募方法】 请申请加QQ群 573697635 记得说明想要应募的职位
昨天 07:31 动画更新员
HD 1080p from Prime Video. Use CBR bitrate mode. Japanese subtitles added. We are planning to upload all prime video japan Dramas and Movies, we need your Support! Support Us Ali (Zhifubao / QR code): https://i.ibb.co/FWV2ggm/1660626347125.png General Unique ID : 174799765222502288580045885856716065038 (0x838135D069DADDF19F45B7756656890E) Complete name : OTHELLO.EP07.1080p.AMZN.WEB-DL.DDP2.0.H.264-MagicStar.mkv Format : Matroska Format version : Version 2 File size : 1.45 GiB Duration : 23 min 30 s Overall bit rate mode : Constant Overall bit rate : 8 838 kb/s Encoded date : UTC 2022-09-27 09:17:05 Writing application : mkvmerge v8.5.2 ('Crosses') 32bit Writing library : libebml v1.3.3 + libmatroska v1.4.4 Video ID : 1 Format : AVC Format/Info : Advanced Video Codec Format profile : [email protected] Format settings : CABAC / 4 Ref Frames Format settings, CABAC : Yes Format settings, Reference fra : 4 frames Codec ID : V_MPEG4/ISO/AVC Duration : 23 min 30 s Bit rate mode : Constant Bit rate : 8 612 kb/s Nominal bit rate : 10 000 kb/s Width : 1 920 pixels Height : 1 080 pixels Display aspect ratio : 16:9 Frame rate mode : Constant Frame rate : 29.970 (30000/1001) FPS Color space : YUV Chroma subsampling : 4:2:0 Bit depth : 8 bits Scan type : Progressive Bits/(Pixel*Frame) : 0.139 Stream size : 1.41 GiB (97%) Default : Yes Forced : No Color range : Limited Color primaries : BT.709 Transfer characteristics : BT.709 Matrix coefficients : BT.709 Audio ID : 2 Format : E-AC-3 Format/Info : Enhanced AC-3 Commercial name : Dolby Digital Plus Codec ID : A_EAC3 Duration : 23 min 30 s Bit rate mode : Constant Bit rate : 224 kb/s Channel(s) : 2 channels Channel layout : L R Sampling rate : 48.0 kHz Frame rate : 31.250 FPS (1536 SPF) Compression mode : Lossy Stream size : 37.7 MiB (3%) Language : Japanese Service kind : Complete Main Default : Yes Forced : No
前天 23:17 日剧更新了
世界遗产是属于地球和人类的,保护世界遗产业已成为21世纪最大的国际合作。或遭风化或受人为破坏,遗产也许无法永存,而借助数码技术,一旦凝固于影像,便可以高清晰地再现,永久保存。基于这样的初衷,从1996年起,日本TBS电视台便开始拍摄制作《世界遗产》这一大型系列纪录片,每周播放一期,迄今为止已经连续播出超过一千集。 在这20多年里,摄制组多次前往从未有人涉足拍摄过的世界遗产进行拍摄。从南极附近的孤岛,到居住着珍稀野兽的中美洲巴拿马热带雨林,从福冈的神宿之岛,到位于深海海底的火山,他们的足迹已踏遍全球的各个角落。拍摄规格也从最初低清晰度的模拟视频,到后来的高清宽屏数字视频,一直到4K超清影片、VR虚拟现实影片,越来越多的世界遗产被凝固在了影像节目中,成为了人类文化和地球样貌的永久纪录。 在这些高质量的影片背后,也少不了制作人员的艰难困苦。每个小组需要携带数百公斤的拍摄器材,有时免不了要踏入人迹罕至的原始丛林,有时又需要攀爬险峻的山峰,又或是要潜入海底。有些摄制组组成员甚至还遇到过致命危险,曾和死神擦身而过。这些辛勤汗水最终化为一部部精彩的视觉盛宴,为您带来源自各地的世界遗产风光。 ========字幕组长期招募=========== 详细招募说明请看此贴→ subs.kamigami.org/28.html 说明:诸神字幕组以高质量精品字幕为宗旨,要求所有制作成员对作品有认真负责的态度。 安排工作时,时间宽裕、责任心强者优先。 ========================== 字幕组官方微博:@诸神字幕组 诸神字幕组 字幕组B站账号:@诸神字幕组 诸神字幕组 更多双语字幕,请访问诸神字幕组发布站 http://subs.kamigami.org 诸神字幕组是以制作双语字幕为主要活动的 网络组织 ,于2008年2月29日创立。意在通过传播异国文化和利用这一沟通渠道,增进对于异国国度的了解,提高大家对于外国语言的理解能力,同时结交更多志同道合的战友们共同奋斗!
09/25 16:49 五花八门
世界遗产是属于地球和人类的,保护世界遗产业已成为21世纪最大的国际合作。或遭风化或受人为破坏,遗产也许无法永存,而借助数码技术,一旦凝固于影像,便可以高清晰地再现,永久保存。基于这样的初衷,从1996年起,日本TBS电视台便开始拍摄制作《世界遗产》这一大型系列纪录片,每周播放一期,迄今为止已经连续播出超过一千集。 在这20多年里,摄制组多次前往从未有人涉足拍摄过的世界遗产进行拍摄。从南极附近的孤岛,到居住着珍稀野兽的中美洲巴拿马热带雨林,从福冈的神宿之岛,到位于深海海底的火山,他们的足迹已踏遍全球的各个角落。拍摄规格也从最初低清晰度的模拟视频,到后来的高清宽屏数字视频,一直到4K超清影片、VR虚拟现实影片,越来越多的世界遗产被凝固在了影像节目中,成为了人类文化和地球样貌的永久纪录。 在这些高质量的影片背后,也少不了制作人员的艰难困苦。每个小组需要携带数百公斤的拍摄器材,有时免不了要踏入人迹罕至的原始丛林,有时又需要攀爬险峻的山峰,又或是要潜入海底。有些摄制组组成员甚至还遇到过致命危险,曾和死神擦身而过。这些辛勤汗水最终化为一部部精彩的视觉盛宴,为您带来源自各地的世界遗产风光。 ========字幕组长期招募=========== 详细招募说明请看此贴→ subs.kamigami.org/28.html 说明:诸神字幕组以高质量精品字幕为宗旨,要求所有制作成员对作品有认真负责的态度。 安排工作时,时间宽裕、责任心强者优先。 ========================== 字幕组官方微博:@诸神字幕组 诸神字幕组 字幕组B站账号:@诸神字幕组 诸神字幕组 更多双语字幕,请访问诸神字幕组发布站 http://subs.kamigami.org 诸神字幕组是以制作双语字幕为主要活动的 网络组织 ,于2008年2月29日创立。意在通过传播异国文化和利用这一沟通渠道,增进对于异国国度的了解,提高大家对于外国语言的理解能力,同时结交更多志同道合的战友们共同奋斗!
09/25 03:18 五花八门
世界遗产是属于地球和人类的,保护世界遗产业已成为21世纪最大的国际合作。或遭风化或受人为破坏,遗产也许无法永存,而借助数码技术,一旦凝固于影像,便可以高清晰地再现,永久保存。基于这样的初衷,从1996年起,日本TBS电视台便开始拍摄制作《世界遗产》这一大型系列纪录片,每周播放一期,迄今为止已经连续播出超过一千集。 在这20多年里,摄制组多次前往从未有人涉足拍摄过的世界遗产进行拍摄。从南极附近的孤岛,到居住着珍稀野兽的中美洲巴拿马热带雨林,从福冈的神宿之岛,到位于深海海底的火山,他们的足迹已踏遍全球的各个角落。拍摄规格也从最初低清晰度的模拟视频,到后来的高清宽屏数字视频,一直到4K超清影片、VR虚拟现实影片,越来越多的世界遗产被凝固在了影像节目中,成为了人类文化和地球样貌的永久纪录。 在这些高质量的影片背后,也少不了制作人员的艰难困苦。每个小组需要携带数百公斤的拍摄器材,有时免不了要踏入人迹罕至的原始丛林,有时又需要攀爬险峻的山峰,又或是要潜入海底。有些摄制组组成员甚至还遇到过致命危险,曾和死神擦身而过。这些辛勤汗水最终化为一部部精彩的视觉盛宴,为您带来源自各地的世界遗产风光。 ========字幕组长期招募=========== 详细招募说明请看此贴→ subs.kamigami.org/28.html 说明:诸神字幕组以高质量精品字幕为宗旨,要求所有制作成员对作品有认真负责的态度。 安排工作时,时间宽裕、责任心强者优先。 ========================== 字幕组官方微博:@诸神字幕组 诸神字幕组 字幕组B站账号:@诸神字幕组 诸神字幕组 更多双语字幕,请访问诸神字幕组发布站 http://subs.kamigami.org 诸神字幕组是以制作双语字幕为主要活动的 网络组织 ,于2008年2月29日创立。意在通过传播异国文化和利用这一沟通渠道,增进对于异国国度的了解,提高大家对于外国语言的理解能力,同时结交更多志同道合的战友们共同奋斗!
09/25 03:18 五花八门