旋风动漫BT资源发布索引 | 汇聚动漫BT/ED资源
为您找到相关结果个     结果不正确?请到这里反馈!
声明:本资源仅供下载试看学习交流之用,请于下载后24小时之内删除. 禁转AcFun bilibili 微博 爱笑聚等一切在线盗版资源网 严禁用于任何商业用途,如因私自传播导致的一切纠纷概不负责. 欢迎大家帮忙辅种分流(本机P2P链接效率不高,建议优先使用网盘下载再来辅种) 网盘下载地址: https://pan.baidu.com/s/1u7Fn69uSJmJtcyKchvnbig 提取码:LXLX 备用(压缩包): https://pan.baidu.com/s/1vI_ogUB03nPNe25zmPYZzQ 提取码:LXLX ※※※※※※※ 影片信息 ※※※※※※※ 片名:OVA Kimagure Orange Road 译名:OVA 橙路 年代:1989 类型:动画/剧情/爱情 制片国家:日本 语言:日语 首播:1989-03-01(日本) 集数:8 字幕:简体中文字幕 视频尺寸:1440x1080 文件大小:13.58G(全8集) 单集片长:25分钟 豆瓣评分:8.6 IMDb:tt0160427 导演:中村孝一郎/森健/吉永尚之/森川滋 编剧:松本泉/寺田宪史 主演:古谷彻/鹤广美/原惠理子/绪方贤一/富泽美智惠 剧情简介:初中生春日恭介生在一个超能力家族,为了避免不必要的麻烦,春日家相约保守这个秘密,却又因 家庭成员一次次破戒而不得不频繁搬家.这一次,他们来到一座新的城市.因一顶飘落的红草帽,恭介邂逅了 美丽的长发少女鲇川圆,于是便对这座城市有了好感.及至进入新的学校,恭介才发现鲇川竟是自己的同班 同学.鲇川个性独立,刚强,因其不良少女的身份而被同学孤立.和她亲近的只有低年级的小师妹桧山光.偶然 机缘,阿光喜欢上了呆头呆脑的恭介,从此以其自居,而恭介似乎更加喜欢鲇川.另一方面,在随后的交往中,鲇 川也对恭介有了好感,却因阿光而有所顾忌.他们的三角恋情将会如何发展?本片根据日本漫画家松本泉的 同名原著改编.
今天 07:16 动画更新员
盾之勇者成名录 / Tate no Yuusha no Nariagari / 盾の勇者の成り上がり BDRip 10-bit 1080p HEVC + FLAC,MKV 格式。每话约 1.25 GB。 部分集数内封 AAC 评论音轨。 盾之勇者成名录 第二季 / Tate no Yuusha no Nariagari Season 2 / 盾の勇者の成り上がり SEASON 2 BDRip 10-bit 1080p HEVC + FLAC,MKV 格式。每话约 1.0 GB。 两季度原盘画质都不错。第一季原生分辨率为 847p,第二季为 837p。线条有轻微的锯齿。画面覆盖了一层较高强度的噪点,虽然盖住了色带,但是也带来了不少烂噪。我们进行了逆向拉伸重构。然后对降噪后的画面进行色带评估,根据其结果进行了自适应去色带处理。然后我们削弱了原盘的烂噪,替换为同等强度的动态噪点以改善观感。最后为了控制体积,我们进行了自适应降噪。 The source quality is good in both seasons, and the native resolution is 847p of S1 and 837p of S2. The image features relatively high-intensity noise, which covers up the colour banding but also introduces a fair amount of bad-encoded noise. Besides, there is also slight aliasing present around the lines. We first performed descaling and reconstruction, next evaluated the colour banding, and then based on its results adaptive de-banding was carried out. The bad-encoded noise was weakened afterwards and replaced with dynamic grains of equal intensity to improve the viewing experience. Finally, our PP ended with adaptive denoising. 第一季的第八集包含了大量的特效和超高强度噪点,如果完全保留原盘的噪点进行压制的话,这一集成品体积会达到 3.3GB。我们结合了神经网络算法和传统算法对重噪点片段进行了降噪,以分离出高频噪点和烂噪并尽量保留细节,并配合亮度自适应降噪以控制成品体积。 S1E8 contains too many visual effects plus ultra-high-intensity noise, which would have resulted in a 3.3GB encoded video if we had retained all the noise during encoding. To solve this issue, we combined both neural network algorithm and traditional algorithm to denoise the cuts with heavy noise: separate high-frequency noise and bad-encoded noise and preserve as much detail as possible, then adopt adaptive denoising based on luminance to control the bitrate. 发布(西娅):小浣熊无敌! 感谢所有资源提供者 / Thank to all resource providers: BD&SCAN: {狂三, Nep_blanc}@U2 CD: [email protected], TSDM合购区, {Sheldonsuckz, Mashin}@nyaa, HAYAKU 本资源扫图格式为 WebP,浏览详情请参见 https://vcb-s.com/archives/7949 。 Please refer to https://vcb-s.com/archives/7949 if you have trouble viewing WebP images. 有关 TSDM 合购区的详情请参见 https://www.tsdm39.net/forum.php?mod=viewthread&tid=879923 。 Please refer to https://www.tsdm39.net/forum.php?mod=viewthread&tid=879923 for more information about jointly purchased music. 基础播放器教程: PotPlayer / MPC-HC / IINA 进阶播放器教程: madVR / PotPlayer+madVR / mpv 中文字幕分享区: Anime 分享论坛 (请善用搜索) 项目计划与列表: VCB-Studio 项目列表 (每月初更新) Comparison (right click on the image and open it in a new tab to see the full-size one) Source________________________________________________Encode
今天 07:15 动画更新员
HD 1080p from TVer. General Unique ID : 44939394164099225969335824865201940449 (0x21CF033290E58E09633835BB2C3EE7E1) Complete name : [MagicStar] Elpis - Kibou, Arui wa Wazawai Spin-Off - 8-nin wa Televi wo Minai EP03 [WEBDL] [1080p].mkv Format : Matroska Format version : Version 4 File size : 192 MiB Duration : 9 min 26 s Overall bit rate mode : Variable Overall bit rate : 2 848 kb/s Writing application : Lavf57.48.101 Writing library : Lavf57.48.101 Video ID : 1 Format : AVC Format/Info : Advanced Video Codec Format profile : [email protected] Format settings : CABAC / 4 Ref Frames Format settings, CABAC : Yes Format settings, Reference fra : 4 frames Codec ID : V_MPEG4/ISO/AVC Duration : 9 min 26 s Bit rate mode : Variable Maximum bit rate : 3 995 kb/s Width : 1 920 pixels Height : 1 080 pixels Display aspect ratio : 16:9 Frame rate mode : Constant Frame rate : 29.970 (30000/1001) FPS Color space : YUV Chroma subsampling : 4:2:0 Bit depth : 8 bits Scan type : Progressive Default : Yes Forced : No Color range : Limited Color primaries : BT.709 Transfer characteristics : BT.709 Matrix coefficients : BT.709 Audio ID : 2 Format : AAC LC Format/Info : Advanced Audio Codec Low Complexity Codec ID : A_AAC-2 Duration : 9 min 26 s Channel(s) : 2 channels Channel layout : L R Sampling rate : 48.0 kHz Frame rate : 46.875 FPS (1024 SPF) Compression mode : Lossy Delay relative to video : -66 ms Default : Yes Forced : No
昨天 07:08 日剧更新了
HD 1080p from FOD. Japanese subtitles added. General Unique ID : 213423449203232611671258851146730825283 (0xA08FDC755775F01F3A2DB53B5193E643) Complete name : Elpis.Kibou.Arui.wa.Wazawai.EP06.1080p.FOD.WEB-DL.AAC2.0.H.264-MagicStar.mkv Format : Matroska Format version : Version 4 File size : 1.93 GiB Duration : 45 min 54 s Overall bit rate mode : Variable Overall bit rate : 6 027 kb/s Encoded date : UTC 2022-11-28 14:41:57 Writing application : mkvmerge v50.0.0 ('Awakenings') 64-bit Writing library : libebml v1.4.0 + libmatroska v1.6.2 Video ID : 1 Format : AVC Format/Info : Advanced Video Codec Format profile : [email protected] Format settings : CABAC / 2 Ref Frames Format settings, CABAC : Yes Format settings, Reference fra : 2 frames Codec ID : V_MPEG4/ISO/AVC Duration : 45 min 54 s Bit rate mode : Variable Bit rate : 5 833 kb/s Maximum bit rate : 15.0 Mb/s Width : 1 920 pixels Height : 1 080 pixels Display aspect ratio : 16:9 Frame rate mode : Constant Frame rate : 29.970 (29970/1000) FPS Original frame rate : 29.970 (30000/1001) FPS Color space : YUV Chroma subsampling : 4:2:0 Bit depth : 8 bits Scan type : Progressive Bits/(Pixel*Frame) : 0.094 Stream size : 1.87 GiB (97%) Default : Yes Forced : No Color range : Limited Color primaries : BT.709 Transfer characteristics : BT.709 Matrix coefficients : BT.709 Audio ID : 2 Format : AAC LC Format/Info : Advanced Audio Codec Low Complexity Codec ID : A_AAC-2 Duration : 45 min 54 s Bit rate : 192 kb/s Channel(s) : 2 channels Channel layout : L R Sampling rate : 48.0 kHz Frame rate : 46.875 FPS (1024 SPF) Compression mode : Lossy Stream size : 63.1 MiB (3%) Language : Japanese Default : Yes Forced : No
昨天 07:08 日剧更新了
HD 1080p from Prime Video. Use CBR bitrate mode. We are planning to upload all prime video japan Dramas and Movies, we need your Support! Support Us Ali (Zhifubao / QR code): https://i.ibb.co/FWV2ggm/1660626347125.png PayPalMe: https://www.paypal.com/paypalme/sakuragikenji General Unique ID : 328323414138306639267075887177797147579 (0xF700CA1AEB19DF72665D6913BC471BBB) Complete name : Shinsou.wa.Mimi.no.Naka.EP06.1080p.AMZN.WEB-DL.DDP2.0.H.264-MagicStar.mkv Format : Matroska Format version : Version 4 File size : 1.64 GiB Duration : 23 min 45 s Overall bit rate mode : Constant Overall bit rate : 9 908 kb/s Encoded date : UTC 2022-11-28 00:03:23 Writing application : mkvmerge v50.0.0 ('Awakenings') 64-bit Writing library : libebml v1.4.0 + libmatroska v1.6.2 Cover : Yes Attachments : cover.png Video ID : 1 Format : AVC Format/Info : Advanced Video Codec Format profile : [email protected] Format settings : CABAC / 4 Ref Frames Format settings, CABAC : Yes Format settings, Reference fra : 4 frames Codec ID : V_MPEG4/ISO/AVC Duration : 23 min 45 s Bit rate mode : Constant Bit rate : 10 000 kb/s Width : 1 920 pixels Height : 1 080 pixels Display aspect ratio : 16:9 Frame rate mode : Constant Frame rate : 23.976 (24000/1001) FPS Color space : YUV Chroma subsampling : 4:2:0 Bit depth : 8 bits Scan type : Progressive Bits/(Pixel*Frame) : 0.201 Stream size : 1.61 GiB (98%) Default : Yes Forced : No Color range : Limited Color primaries : BT.709 Transfer characteristics : BT.709 Matrix coefficients : BT.709 Audio ID : 2 Format : E-AC-3 Format/Info : Enhanced AC-3 Commercial name : Dolby Digital Plus Codec ID : A_EAC3 Duration : 23 min 45 s Bit rate mode : Constant Bit rate : 224 kb/s Channel(s) : 2 channels Channel layout : L R Sampling rate : 48.0 kHz Frame rate : 31.250 FPS (1536 SPF) Compression mode : Lossy Stream size : 38.1 MiB (2%) Language : Japanese Service kind : Complete Main Default : Yes Forced : No
昨天 07:08 日剧更新了
HD 1080p from FOD. Japanese subtitles added. General Unique ID : 116232358351317687389536656054952515123 (0x577189B6CCC5FC8E39186A7C7155D633) Complete name : PICU.Shouni.Shuuchuu.Chiryoushitsu.EP08.1080p.FOD.WEB-DL.AAC2.0.H.264-MagicStar.mkv Format : Matroska Format version : Version 4 File size : 976 MiB Duration : 46 min 19 s Overall bit rate mode : Variable Overall bit rate : 2 944 kb/s Encoded date : UTC 2022-11-28 13:50:58 Writing application : mkvmerge v50.0.0 ('Awakenings') 64-bit Writing library : libebml v1.4.0 + libmatroska v1.6.2 Video ID : 1 Format : AVC Format/Info : Advanced Video Codec Format profile : [email protected] Format settings : CABAC / 2 Ref Frames Format settings, CABAC : Yes Format settings, Reference fra : 2 frames Codec ID : V_MPEG4/ISO/AVC Duration : 46 min 19 s Bit rate mode : Variable Bit rate : 2 750 kb/s Maximum bit rate : 15.0 Mb/s Width : 1 920 pixels Height : 1 080 pixels Display aspect ratio : 16:9 Frame rate mode : Constant Frame rate : 29.970 (29970/1000) FPS Original frame rate : 29.970 (30000/1001) FPS Color space : YUV Chroma subsampling : 4:2:0 Bit depth : 8 bits Scan type : Progressive Bits/(Pixel*Frame) : 0.044 Stream size : 911 MiB (93%) Default : Yes Forced : No Color range : Limited Color primaries : BT.709 Transfer characteristics : BT.709 Matrix coefficients : BT.709 Audio ID : 2 Format : AAC LC Format/Info : Advanced Audio Codec Low Complexity Codec ID : A_AAC-2 Duration : 46 min 19 s Bit rate : 192 kb/s Channel(s) : 2 channels Channel layout : L R Sampling rate : 48.0 kHz Frame rate : 46.875 FPS (1024 SPF) Compression mode : Lossy Stream size : 63.6 MiB (7%) Language : Japanese Default : Yes Forced : No
昨天 07:08 日剧更新了
HD 1080p from Prime Video. Use CBR bitrate mode. Japanese subtitles added. We are planning to upload all prime video japan Dramas and Movies, we need your Support! Support Us Ali (Zhifubao / QR code): https://i.ibb.co/FWV2ggm/1660626347125.png PayPalMe: https://www.paypal.com/paypalme/sakuragikenji General Unique ID : 79908529723665924724804635689088807748 (0x3C1DD2B17BA9CC843E6FADEB070D7344) Complete name : Sawako.Sore.wa.Hatenaki.Fukushuu.EP09.1080p.AMZN.WEB-DL.DDP2.0.H.264-MagicStar.mkv Format : Matroska Format version : Version 4 File size : 2.37 GiB Duration : 44 min 24 s Overall bit rate mode : Constant Overall bit rate : 7 629 kb/s Encoded date : UTC 2022-11-28 09:21:03 Writing application : mkvmerge v50.0.0 ('Awakenings') 64-bit Writing library : libebml v1.4.0 + libmatroska v1.6.2 Cover : Yes Attachments : cover.png Video ID : 1 Format : AVC Format/Info : Advanced Video Codec Format profile : [email protected] Format settings : CABAC / 4 Ref Frames Format settings, CABAC : Yes Format settings, Reference fra : 4 frames Codec ID : V_MPEG4/ISO/AVC Duration : 44 min 24 s Bit rate mode : Constant Bit rate : 7 387 kb/s Nominal bit rate : 10 000 kb/s Width : 1 920 pixels Height : 1 080 pixels Display aspect ratio : 16:9 Frame rate mode : Constant Frame rate : 29.970 (29970/1000) FPS Original frame rate : 29.970 (30000/1001) FPS Color space : YUV Chroma subsampling : 4:2:0 Bit depth : 8 bits Scan type : Progressive Bits/(Pixel*Frame) : 0.119 Stream size : 2.29 GiB (97%) Default : Yes Forced : No Color range : Limited Color primaries : BT.709 Transfer characteristics : BT.709 Matrix coefficients : BT.709 Audio ID : 2 Format : E-AC-3 Format/Info : Enhanced AC-3 Commercial name : Dolby Digital Plus Codec ID : A_EAC3 Duration : 44 min 24 s Bit rate mode : Constant Bit rate : 224 kb/s Channel(s) : 2 channels Channel layout : L R Sampling rate : 48.0 kHz Frame rate : 31.250 FPS (1536 SPF) Compression mode : Lossy Stream size : 71.1 MiB (3%) Language : Japanese Service kind : Complete Main Default : Yes Forced : No
昨天 07:08 日剧更新了
HD 1080p from Prime Video. Use CBR bitrate mode. We are planning to upload all prime video japan Dramas and Movies, we need your Support! Support Us Ali (Zhifubao / QR code): https://i.ibb.co/FWV2ggm/1660626347125.png PayPalMe: https://www.paypal.com/paypalme/sakuragikenji General Unique ID : 184750994393808585169328702981615589818 (0x8AFDBF4AD903913DEA68FD3ED47319BA) Complete name : Seishun.Cinderella.EP06.1080p.AMZN.WEB-DL.DDP2.0.H.264-MagicStar.mkv Format : Matroska Format version : Version 4 File size : 1.66 GiB Duration : 23 min 30 s Overall bit rate mode : Constant Overall bit rate : 10.1 Mb/s Encoded date : UTC 2022-11-28 09:15:08 Writing application : mkvmerge v50.0.0 ('Awakenings') 64-bit Writing library : libebml v1.4.0 + libmatroska v1.6.2 Cover : Yes Attachments : cover.png Video ID : 1 Format : AVC Format/Info : Advanced Video Codec Format profile : [email protected] Format settings : CABAC / 4 Ref Frames Format settings, CABAC : Yes Format settings, Reference fra : 4 frames Codec ID : V_MPEG4/ISO/AVC Duration : 23 min 30 s Bit rate mode : Constant Bit rate : 10 000 kb/s Width : 1 920 pixels Height : 1 080 pixels Display aspect ratio : 16:9 Frame rate mode : Constant Frame rate : 29.970 (29970/1000) FPS Original frame rate : 29.970 (30000/1001) FPS Color space : YUV Chroma subsampling : 4:2:0 Bit depth : 8 bits Scan type : Progressive Bits/(Pixel*Frame) : 0.161 Stream size : 1.62 GiB (98%) Default : Yes Forced : No Color range : Limited Color primaries : BT.709 Transfer characteristics : BT.709 Matrix coefficients : BT.709 Audio ID : 2 Format : E-AC-3 Format/Info : Enhanced AC-3 Commercial name : Dolby Digital Plus Codec ID : A_EAC3 Duration : 23 min 30 s Bit rate mode : Constant Bit rate : 224 kb/s Channel(s) : 2 channels Channel layout : L R Sampling rate : 48.0 kHz Frame rate : 31.250 FPS (1536 SPF) Compression mode : Lossy Stream size : 37.7 MiB (2%) Language : Japanese Service kind : Complete Main Default : Yes Forced : No
昨天 07:08 日剧更新了
HD 1080p from Prime Video. Use CBR bitrate mode. Japanese subtitles added. We are planning to upload all prime video japan Dramas and Movies, we need your Support! Support Us Ali (Zhifubao / QR code): https://i.ibb.co/FWV2ggm/1660626347125.png PayPalMe: https://www.paypal.com/paypalme/sakuragikenji General Unique ID : 97190357641308019381976630925124411617 (0x491E2E981F71005FA10DC4446A67A0E1) Complete name : Kaeranai.Ojisan.EP08.1080p.AMZN.WEB-DL.DDP2.0.H.264-MagicStar.mkv Format : Matroska Format version : Version 4 File size : 1.11 GiB Duration : 24 min 27 s Overall bit rate mode : Constant Overall bit rate : 6 510 kb/s Encoded date : UTC 2022-11-28 00:01:31 Writing application : mkvmerge v50.0.0 ('Awakenings') 64-bit Writing library : libebml v1.4.0 + libmatroska v1.6.2 Cover : Yes Attachments : cover.png Video ID : 1 Format : AVC Format/Info : Advanced Video Codec Format profile : [email protected] Format settings : CABAC / 4 Ref Frames Format settings, CABAC : Yes Format settings, Reference fra : 4 frames Codec ID : V_MPEG4/ISO/AVC Duration : 24 min 27 s Bit rate mode : Constant Bit rate : 6 255 kb/s Nominal bit rate : 10 000 kb/s Width : 1 920 pixels Height : 1 080 pixels Display aspect ratio : 16:9 Frame rate mode : Constant Frame rate : 29.970 (29970/1000) FPS Original frame rate : 29.970 (30000/1001) FPS Color space : YUV Chroma subsampling : 4:2:0 Bit depth : 8 bits Scan type : Progressive Bits/(Pixel*Frame) : 0.101 Stream size : 1.07 GiB (96%) Default : Yes Forced : No Color range : Limited Color primaries : BT.709 Transfer characteristics : BT.709 Matrix coefficients : BT.709 Audio ID : 2 Format : E-AC-3 Format/Info : Enhanced AC-3 Commercial name : Dolby Digital Plus Codec ID : A_EAC3 Duration : 24 min 27 s Bit rate mode : Constant Bit rate : 224 kb/s Channel(s) : 2 channels Channel layout : L R Sampling rate : 48.0 kHz Frame rate : 31.250 FPS (1536 SPF) Compression mode : Lossy Stream size : 39.2 MiB (3%) Language : Japanese Service kind : Complete Main Default : Yes Forced : No
昨天 07:08 日剧更新了
HD 1080p from HULU JAPAN. General Unique ID : 88984310449290528773444831354181629158 (0x42F1C13B105CEBBDC56C35F2E7E7B4E6) Complete name : invert.Jouzuka.Hisui.Toujoshuu.Special.1080p.HULU.WEB-DL.AAC2.0.H.264-MagicStar.mkv Format : Matroska Format version : Version 4 File size : 1.29 GiB Duration : 45 min 19 s Overall bit rate : 4 072 kb/s Encoded date : UTC 2022-11-27 23:43:09 Writing application : mkvmerge v50.0.0 ('Awakenings') 64-bit Writing library : libebml v1.4.0 + libmatroska v1.6.2 Cover : Yes Attachments : cover.png Video ID : 1 Format : AVC Format/Info : Advanced Video Codec Format profile : [email protected] Format settings : CABAC / 4 Ref Frames Format settings, CABAC : Yes Format settings, Reference fra : 4 frames Codec ID : V_MPEG4/ISO/AVC Duration : 45 min 19 s Bit rate : 3 943 kb/s Width : 1 920 pixels Height : 1 080 pixels Display aspect ratio : 16:9 Frame rate mode : Constant Frame rate : 29.970 (29970/1000) FPS Original frame rate : 29.970 (30000/1001) FPS Color space : YUV Chroma subsampling : 4:2:0 Bit depth : 8 bits Scan type : Progressive Bits/(Pixel*Frame) : 0.063 Stream size : 1.25 GiB (97%) Default : Yes Forced : No Color range : Limited Color primaries : BT.709 Transfer characteristics : BT.709 Matrix coefficients : BT.709 Audio ID : 2 Format : AAC LC Format/Info : Advanced Audio Codec Low Complexity Codec ID : A_AAC-2 Duration : 45 min 19 s Bit rate : 125 kb/s Channel(s) : 2 channels Channel layout : L R Sampling rate : 48.0 kHz Frame rate : 46.875 FPS (1024 SPF) Compression mode : Lossy Stream size : 40.6 MiB (3%) Language : Japanese Default : Yes Forced : No
昨天 07:08 日剧更新了
HD 1080p from Netflix. Japanese subtitles added. General Unique ID : 201545449275576143578852973356132898676 (0x97A03DD8F0763E06D839C5B28A549774) Complete name : Jitenshaya.San.no.Takahashi.kun.EP04.DC.1080p.NF.WEB-DL.DDP2.0.H.264-MagicStar.mkv Format : Matroska Format version : Version 4 File size : 453 MiB Duration : 24 min 41 s Overall bit rate mode : Variable Overall bit rate : 2 566 kb/s Encoded date : UTC 2022-11-27 23:45:28 Writing application : mkvmerge v50.0.0 ('Awakenings') 64-bit Writing library : libebml v1.4.0 + libmatroska v1.6.2 Cover : Yes Attachments : cover.png Video ID : 1 Format : AVC Format/Info : Advanced Video Codec Format profile : [email protected] Format settings : CABAC / 4 Ref Frames Format settings, CABAC : Yes Format settings, Reference fra : 4 frames Codec ID : V_MPEG4/ISO/AVC Duration : 24 min 41 s Bit rate mode : Variable Bit rate : 2 436 kb/s Maximum bit rate : 20.0 Mb/s Width : 1 920 pixels Height : 1 080 pixels Display aspect ratio : 16:9 Frame rate mode : Constant Frame rate : 23.976 (24000/1001) FPS Color space : YUV Chroma subsampling : 4:2:0 Bit depth : 8 bits Scan type : Progressive Bits/(Pixel*Frame) : 0.049 Stream size : 430 MiB (95%) Writing library : x264 core 148 r2727 7d026e8 Encoding settings : cabac=1 / ref=4 / deblock=1:0:0 / analyse=0x3:0x111 / me=umh / subme=10 / psy=1 / psy_rd=1.00:0.00 / mixed_ref=1 / me_range=120 / chroma_me=1 / trellis=2 / 8x8dct=1 / cqm=0 / deadzone=21,11 / fast_pskip=1 / chroma_qp_offset=-2 / threads=6 / lookahead_threads=1 / sliced_threads=0 / nr=0 / decimate=1 / interlaced=0 / bluray_compat=0 / stitchable=1 / constrained_intra=0 / bframes=16 / b_pyramid=2 / b_adapt=2 / b_bias=0 / direct=3 / weightb=1 / open_gop=0 / weightp=2 / keyint=240 / keyint_min=121 / scenecut=0 / intra_refresh=0 / rc_lookahead=240 / rc=crf / mbtree=1 / crf=21.0 / qcomp=0.50 / qpmin=6 / qpmax=51 / qpstep=4 / vbv_maxrate=20000 / vbv_bufsize=25000 / crf_max=0.0 / nal_hrd=vbr / filler=0 / ip_ratio=1.40 / aq=1:0.80 Default : Yes Forced : No Audio ID : 2 Format : E-AC-3 Format/Info : Enhanced AC-3 Commercial name : Dolby Digital Plus Codec ID : A_EAC3 Duration : 24 min 41 s Bit rate mode : Constant Bit rate : 128 kb/s Channel(s) : 2 channels Channel layout : L R Sampling rate : 48.0 kHz Frame rate : 31.250 FPS (1536 SPF) Compression mode : Lossy Stream size : 22.6 MiB (5%) Language : Japanese Service kind : Complete Main Default : Yes Forced : No
昨天 07:08 日剧更新了
HD 1080p from FOD. Japanese subtitles added. General Unique ID : 125950168887005703744719949995463681673 (0x5EC11EC3DAE6AA79C08BEA83A8A82689) Complete name : Saikou.no.Obahan.Nakajima.Haruko.S02EP08.1080p.FOD.WEB-DL.AAC2.0.H.264-MagicStar.mkv Format : Matroska Format version : Version 4 File size : 1.54 GiB Duration : 44 min 5 s Overall bit rate mode : Variable Overall bit rate : 5 013 kb/s Encoded date : UTC 2022-11-27 23:40:52 Writing application : mkvmerge v50.0.0 ('Awakenings') 64-bit Writing library : libebml v1.4.0 + libmatroska v1.6.2 Video ID : 1 Format : AVC Format/Info : Advanced Video Codec Format profile : [email protected] Format settings : CABAC / 2 Ref Frames Format settings, CABAC : Yes Format settings, Reference fra : 2 frames Codec ID : V_MPEG4/ISO/AVC Duration : 44 min 5 s Bit rate mode : Variable Bit rate : 4 818 kb/s Maximum bit rate : 15.0 Mb/s Width : 1 920 pixels Height : 1 080 pixels Display aspect ratio : 16:9 Frame rate mode : Constant Frame rate : 29.970 (29970/1000) FPS Original frame rate : 29.970 (30000/1001) FPS Color space : YUV Chroma subsampling : 4:2:0 Bit depth : 8 bits Scan type : Progressive Bits/(Pixel*Frame) : 0.078 Stream size : 1.48 GiB (96%) Default : Yes Forced : No Color range : Limited Color primaries : BT.709 Transfer characteristics : BT.709 Matrix coefficients : BT.709 Audio ID : 2 Format : AAC LC Format/Info : Advanced Audio Codec Low Complexity Codec ID : A_AAC-2 Duration : 44 min 5 s Bit rate : 192 kb/s Channel(s) : 2 channels Channel layout : L R Sampling rate : 48.0 kHz Frame rate : 46.875 FPS (1024 SPF) Compression mode : Lossy Stream size : 60.5 MiB (4%) Language : Japanese Default : Yes Forced : No
昨天 07:08 日剧更新了
HD 1080p from HULU JAPAN. General Unique ID : 43962402526265079832758623456853076269 (0x2112D9CA70E2B855ED78A0305161A92D) Complete name : Tsuka.no.Ma.no.Ichika.EP07.1080p.HULU.WEB-DL.AAC2.0.H.264-MagicStar.mkv Format : Matroska Format version : Version 4 File size : 677 MiB Duration : 23 min 25 s Overall bit rate : 4 042 kb/s Encoded date : UTC 2022-11-28 17:41:36 Writing application : mkvmerge v50.0.0 ('Awakenings') 64-bit Writing library : libebml v1.4.0 + libmatroska v1.6.2 Cover : Yes Attachments : cover.png Video ID : 1 Format : AVC Format/Info : Advanced Video Codec Format profile : [email protected] Format settings : CABAC / 4 Ref Frames Format settings, CABAC : Yes Format settings, Reference fra : 4 frames Codec ID : V_MPEG4/ISO/AVC Duration : 23 min 24 s Bit rate : 3 914 kb/s Width : 1 920 pixels Height : 1 080 pixels Display aspect ratio : 16:9 Frame rate mode : Constant Frame rate : 23.976 (24000/1001) FPS Color space : YUV Chroma subsampling : 4:2:0 Bit depth : 8 bits Scan type : Progressive Bits/(Pixel*Frame) : 0.079 Stream size : 656 MiB (97%) Default : Yes Forced : No Color range : Limited Color primaries : BT.709 Transfer characteristics : BT.709 Matrix coefficients : BT.709 Audio ID : 2 Format : AAC LC Format/Info : Advanced Audio Codec Low Complexity Codec ID : A_AAC-2 Duration : 23 min 25 s Bit rate : 125 kb/s Channel(s) : 2 channels Channel layout : L R Sampling rate : 48.0 kHz Frame rate : 46.875 FPS (1024 SPF) Compression mode : Lossy Stream size : 21.0 MiB (3%) Language : Japanese Default : Yes Forced : No
昨天 07:08 日剧更新了
HD 1080p from Abema TV. General Unique ID : 83117047320542478900800287581222319397 (0x3E87C2D3046D50B6E980FF5F6D39B525) Complete name : [MagicStar] Fukumen D EP08 END [WEBDL] [1080p].mkv Format : Matroska Format version : Version 4 File size : 1.87 GiB Duration : 1 h 3 min Overall bit rate : 4 198 kb/s Writing application : Lavf57.48.101 Writing library : Lavf57.48.101 Video ID : 1 Format : AVC Format/Info : Advanced Video Codec Format profile : [email protected] Format settings : CABAC / 4 Ref Frames Format settings, CABAC : Yes Format settings, Reference fra : 4 frames Codec ID : V_MPEG4/ISO/AVC Duration : 1 h 3 min Nominal bit rate : 4 000 kb/s Width : 1 920 pixels Height : 1 080 pixels Display aspect ratio : 16:9 Frame rate mode : Constant Frame rate : 23.976 (24000/1001) FPS Color space : YUV Chroma subsampling : 4:2:0 Bit depth : 8 bits Scan type : Progressive Bits/(Pixel*Frame) : 0.080 Writing library : x264 core 148 r265 3b70645 Encoding settings : cabac=1 / ref=2 / deblock=1:0:0 / analyse=0x1:0x111 / me=hex / subme=7 / psy=1 / psy_rd=1.00:0.00 / mixed_ref=1 / me_range=16 / chroma_me=1 / trellis=1 / 8x8dct=0 / cqm=0 / deadzone=21,11 / fast_pskip=1 / chroma_qp_offset=-2 / threads=9 / lookahead_threads=1 / sliced_threads=0 / nr=0 / decimate=1 / interlaced=0 / bluray_compat=0 / constrained_intra=0 / bframes=3 / b_pyramid=2 / b_adapt=1 / b_bias=0 / direct=1 / weightb=1 / open_gop=0 / weightp=2 / keyint=1000 / keyint_min=501 / scenecut=0 / intra_refresh=0 / rc_lookahead=40 / rc=2pass / mbtree=1 / bitrate=4000 / ratetol=1.0 / qcomp=0.60 / qpmin=0 / qpmax=69 / qpstep=4 / cplxblur=20.0 / qblur=0.5 / ip_ratio=1.40 / aq=1:1.00 Default : Yes Forced : No Audio ID : 2 Format : AAC LC Format/Info : Advanced Audio Codec Low Complexity Codec ID : A_AAC-2 Duration : 1 h 3 min Channel(s) : 2 channels Channel layout : L R Sampling rate : 44.1 kHz Frame rate : 43.066 FPS (1024 SPF) Compression mode : Lossy Delay relative to video : -23 ms Default : Yes Forced : No
昨天 07:07 日剧更新了
HD 1080p from HULU JAPAN. General Unique ID : 299630926255967587290843809844189915657 (0xE16AD13B7EF254FC44AB76B3FC12EA09) Complete name : Sister.EP06.1080p.HULU.WEB-DL.AAC2.0.H.264-MagicStar.mkv Format : Matroska Format version : Version 4 File size : 1 019 MiB Duration : 42 min 32 s Overall bit rate : 3 350 kb/s Encoded date : UTC 2022-11-27 23:44:39 Writing application : mkvmerge v50.0.0 ('Awakenings') 64-bit Writing library : libebml v1.4.0 + libmatroska v1.6.2 Cover : Yes Attachments : cover.png Video ID : 1 Format : AVC Format/Info : Advanced Video Codec Format profile : [email protected] Format settings : CABAC / 4 Ref Frames Format settings, CABAC : Yes Format settings, Reference fra : 4 frames Codec ID : V_MPEG4/ISO/AVC Duration : 42 min 32 s Bit rate : 3 222 kb/s Width : 1 920 pixels Height : 1 080 pixels Display aspect ratio : 16:9 Frame rate mode : Constant Frame rate : 29.970 (29970/1000) FPS Original frame rate : 29.970 (30000/1001) FPS Color space : YUV Chroma subsampling : 4:2:0 Bit depth : 8 bits Scan type : Progressive Bits/(Pixel*Frame) : 0.052 Stream size : 980 MiB (96%) Default : Yes Forced : No Color range : Limited Color primaries : BT.709 Transfer characteristics : BT.709 Matrix coefficients : BT.709 Audio ID : 2 Format : AAC LC Format/Info : Advanced Audio Codec Low Complexity Codec ID : A_AAC-2 Duration : 42 min 32 s Bit rate : 125 kb/s Channel(s) : 2 channels Channel layout : L R Sampling rate : 48.0 kHz Frame rate : 46.875 FPS (1024 SPF) Compression mode : Lossy Stream size : 38.1 MiB (4%) Language : Japanese Default : Yes Forced : No
昨天 07:07 日剧更新了
HD 1080p from HULU JAPAN. General Unique ID : 481527137445974563701118631069250485 (0x5CBD1EEFC17799BF50804910F673B5) Complete name : Inori.no.Karte.Kenshuui.no.Nazotoki.Shinsatsu.Kiroku.EP08.1080p.HULU.WEB-DL.AAC2.0.H.264-MagicStar.mkv Format : Matroska Format version : Version 4 File size : 1.06 GiB Duration : 45 min 4 s Overall bit rate : 3 355 kb/s Encoded date : UTC 2022-11-27 23:42:27 Writing application : mkvmerge v50.0.0 ('Awakenings') 64-bit Writing library : libebml v1.4.0 + libmatroska v1.6.2 Cover : Yes Attachments : cover.png Video ID : 1 Format : AVC Format/Info : Advanced Video Codec Format profile : [email protected] Format settings : CABAC / 4 Ref Frames Format settings, CABAC : Yes Format settings, Reference fra : 4 frames Codec ID : V_MPEG4/ISO/AVC Duration : 45 min 3 s Bit rate : 3 227 kb/s Width : 1 920 pixels Height : 1 080 pixels Display aspect ratio : 16:9 Frame rate mode : Constant Frame rate : 29.970 (29970/1000) FPS Original frame rate : 29.970 (30000/1001) FPS Color space : YUV Chroma subsampling : 4:2:0 Bit depth : 8 bits Scan type : Progressive Bits/(Pixel*Frame) : 0.052 Stream size : 1.02 GiB (96%) Default : Yes Forced : No Color range : Limited Color primaries : BT.709 Transfer characteristics : BT.709 Matrix coefficients : BT.709 Audio ID : 2 Format : AAC LC Format/Info : Advanced Audio Codec Low Complexity Codec ID : A_AAC-2 Duration : 45 min 4 s Bit rate : 125 kb/s Channel(s) : 2 channels Channel layout : L R Sampling rate : 48.0 kHz Frame rate : 46.875 FPS (1024 SPF) Compression mode : Lossy Stream size : 40.4 MiB (4%) Language : Japanese Default : Yes Forced : No
昨天 07:07 日剧更新了
HD 1080p from official website. No watermark version. Japanese subtitles added. General Unique ID : 26678930567035726973819195599500734236 (0x14122CD5143C4E7D93073282A1A1EF1C) Complete name : [MagicStar] The Travel Nurse EP06 [WEBDL] [1080p].mkv Format : Matroska Format version : Version 4 File size : 1.32 GiB Duration : 45 min 5 s Overall bit rate : 4 199 kb/s Writing application : Lavf57.48.101 Writing library : Lavf57.48.101 Video ID : 1 Format : AVC Format/Info : Advanced Video Codec Format profile : [email protected] Format settings : CABAC / 4 Ref Frames Format settings, CABAC : Yes Format settings, Reference fra : 4 frames Codec ID : V_MPEG4/ISO/AVC Duration : 45 min 4 s Nominal bit rate : 4 000 kb/s Width : 1 920 pixels Height : 1 080 pixels Display aspect ratio : 16:9 Frame rate mode : Constant Frame rate : 29.970 (30000/1001) FPS Color space : YUV Chroma subsampling : 4:2:0 Bit depth : 8 bits Scan type : Progressive Bits/(Pixel*Frame) : 0.064 Writing library : x264 core 148 r265 3b70645 Encoding settings : cabac=1 / ref=2 / deblock=1:0:0 / analyse=0x1:0x111 / me=hex / subme=7 / psy=1 / psy_rd=1.00:0.00 / mixed_ref=1 / me_range=16 / chroma_me=1 / trellis=1 / 8x8dct=0 / cqm=0 / deadzone=21,11 / fast_pskip=1 / chroma_qp_offset=-2 / threads=9 / lookahead_threads=1 / sliced_threads=0 / nr=0 / decimate=1 / interlaced=0 / bluray_compat=0 / constrained_intra=0 / bframes=3 / b_pyramid=2 / b_adapt=1 / b_bias=0 / direct=1 / weightb=1 / open_gop=0 / weightp=2 / keyint=1000 / keyint_min=501 / scenecut=0 / intra_refresh=0 / rc_lookahead=40 / rc=2pass / mbtree=1 / bitrate=4000 / ratetol=1.0 / qcomp=0.60 / qpmin=0 / qpmax=69 / qpstep=4 / cplxblur=20.0 / qblur=0.5 / ip_ratio=1.40 / aq=1:1.00 Default : Yes Forced : No Audio ID : 2 Format : AAC LC Format/Info : Advanced Audio Codec Low Complexity Codec ID : A_AAC-2 Duration : 45 min 5 s Channel(s) : 2 channels Channel layout : L R Sampling rate : 44.1 kHz Frame rate : 43.066 FPS (1024 SPF) Compression mode : Lossy Delay relative to video : -23 ms Default : Yes Forced : No
昨天 07:07 日剧更新了
HD 1080p from U-NEXT. Started to support U-NEXT, but it’s still in the testing stage. We are planning to upload all U-NEXT Dramas and Movies, we need your Support! Support Us Ali (Zhifubao / QR code): https://i.ibb.co/FWV2ggm/1660626347125.png PayPalMe: https://www.paypal.com/paypalme/sakuragikenji General Unique ID : 317523478545110414314927082008071670274 (0xEEE0CC2B6CA092BBC25F05EC962C8A02) Complete name : Debu.to.Love.to.Ayamachi.to.EP04.1080p.U-NEXT.WEB-DL.AAC2.0.H.264-MagicStar.mkv Format : Matroska Format version : Version 4 File size : 733 MiB Duration : 24 min 44 s Overall bit rate : 4 143 kb/s Encoded date : UTC 2022-11-28 17:30:14 Writing application : mkvmerge v50.0.0 ('Awakenings') 64-bit Writing library : libebml v1.4.0 + libmatroska v1.6.2 Cover : Yes Attachments : cover.png Video ID : 1 Format : AVC Format/Info : Advanced Video Codec Format profile : [email protected] Format settings : CABAC / 2 Ref Frames Format settings, CABAC : Yes Format settings, Reference fra : 2 frames Codec ID : V_MPEG4/ISO/AVC Duration : 24 min 44 s Bit rate : 4 020 kb/s Width : 1 920 pixels Height : 1 080 pixels Display aspect ratio : 16:9 Frame rate mode : Constant Frame rate : 29.970 (29970/1000) FPS Color space : YUV Chroma subsampling : 4:2:0 Bit depth : 8 bits Scan type : Progressive Bits/(Pixel*Frame) : 0.065 Stream size : 710 MiB (97%) Writing library : x264 core 148 r2665kMod a01e339 Encoding settings : cabac=1 / ref=2 / deblock=1:1:1 / analyse=0x1:0x111 / me=tesa / subme=11 / psy=1 / fade_compensate=0.00 / psy_rd=0.40:0.10 / mixed_ref=1 / me_range=48 / chroma_me=1 / trellis=2 / 8x8dct=0 / cqm=0 / deadzone=21,11 / fast_pskip=1 / chroma_qp_offset=-3 / threads=12 / lookahead_threads=1 / sliced_threads=0 / nr=0 / decimate=1 / interlaced=0 / bluray_compat=0 / constrained_intra=0 / fgo=0 / bframes=2 / b_pyramid=0 / b_adapt=2 / b_bias=0 / direct=3 / weightb=1 / open_gop=0 / weightp=2 / keyint=60 / keyint_min=31 / scenecut=0 / intra_refresh=0 / rc_lookahead=60 / rc=2pass / mbtree=1 / bitrate=4020 / ratetol=1.0 / qcomp=0.80 / qpmin=10 / qpmax=69 / qpstep=15 / cplxblur=20.0 / qblur=0.5 / vbv_maxrate=8050 / vbv_bufsize=8050 / nal_hrd=none / filler=0 / ip_ratio=1.40 / aq=2:0.60 Default : Yes Forced : No Audio ID : 2 Format : AAC LC Format/Info : Advanced Audio Codec Low Complexity Codec ID : A_AAC-2 Duration : 24 min 44 s Bit rate : 125 kb/s Channel(s) : 2 channels Channel layout : L R Sampling rate : 48.0 kHz Frame rate : 46.875 FPS (1024 SPF) Compression mode : Lossy Stream size : 22.2 MiB (3%) Language : Japanese Default : Yes Forced : No
昨天 07:07 日剧更新了
HD 1080p from Prime Video. Use CBR bitrate mode. We are planning to upload all prime video japan Dramas and Movies, we need your Support! Support Us Ali (Zhifubao / QR code): https://i.ibb.co/FWV2ggm/1660626347125.png PayPalMe: https://www.paypal.com/paypalme/sakuragikenji General Unique ID : 53606149869517919226728610879209558210 (0x28542B3E956D3CAB834FBBA0DE6D50C2) Complete name : Ultraman.Decker.EP18.1080p.AMZN.WEB-DL.DDP2.0.H.264-MagicStar.mkv Format : Matroska Format version : Version 4 File size : 1.63 GiB Duration : 24 min 34 s Overall bit rate mode : Constant Overall bit rate : 9 478 kb/s Encoded date : UTC 2022-11-28 00:06:30 Writing application : mkvmerge v50.0.0 ('Awakenings') 64-bit Writing library : libebml v1.4.0 + libmatroska v1.6.2 Cover : Yes Attachments : cover.png Video ID : 1 Format : AVC Format/Info : Advanced Video Codec Format profile : [email protected] Format settings : CABAC / 4 Ref Frames Format settings, CABAC : Yes Format settings, Reference fra : 4 frames Codec ID : V_MPEG4/ISO/AVC Duration : 24 min 34 s Bit rate mode : Constant Bit rate : 9 237 kb/s Nominal bit rate : 10 000 kb/s Width : 1 920 pixels Height : 1 080 pixels Display aspect ratio : 16:9 Frame rate mode : Constant Frame rate : 23.976 (24000/1001) FPS Color space : YUV Chroma subsampling : 4:2:0 Bit depth : 8 bits Scan type : Progressive Bits/(Pixel*Frame) : 0.186 Stream size : 1.59 GiB (97%) Default : Yes Forced : No Color range : Limited Color primaries : BT.709 Transfer characteristics : BT.709 Matrix coefficients : BT.709 Audio ID : 2 Format : E-AC-3 Format/Info : Enhanced AC-3 Commercial name : Dolby Digital Plus Codec ID : A_EAC3 Duration : 24 min 34 s Bit rate mode : Constant Bit rate : 224 kb/s Channel(s) : 2 channels Channel layout : L R Sampling rate : 48.0 kHz Frame rate : 31.250 FPS (1536 SPF) Compression mode : Lossy Stream size : 39.4 MiB (2%) Language : Japanese Service kind : Complete Main Default : Yes Forced : No
昨天 07:07 特摄连载
HD 1080p from Youtube official channel. English and Chinese subtitles added. General Unique ID : 306847207744296402908267814741441673774 (0xE6D89F610D213C646130B968172E7A2E) Complete name : [MagicStar] Ultraman Decker EP19 [WEBDL] [1080p] [YOUTUBE].mkv Format : Matroska Format version : Version 4 File size : 512 MiB Duration : 29 min 56 s Overall bit rate mode : Variable Overall bit rate : 2 389 kb/s Encoded date : UTC 2022-11-28 10:13:45 Writing application : mkvmerge v50.0.0 ('Awakenings') 64-bit Writing library : libebml v1.4.0 + libmatroska v1.6.2 Video ID : 1 Format : AVC Format/Info : Advanced Video Codec Format profile : [email protected] Format settings : CABAC / 3 Ref Frames Format settings, CABAC : Yes Format settings, Reference fra : 3 frames Codec ID : V_MPEG4/ISO/AVC Duration : 29 min 56 s Bit rate mode : Variable Bit rate : 2 259 kb/s Maximum bit rate : 40.0 Mb/s Width : 1 920 pixels Height : 1 080 pixels Display aspect ratio : 16:9 Frame rate mode : Constant Frame rate : 23.976 (24000/1001) FPS Color space : YUV Chroma subsampling : 4:2:0 Bit depth : 8 bits Scan type : Progressive Bits/(Pixel*Frame) : 0.045 Stream size : 484 MiB (95%) Default : Yes Forced : No Color range : Limited Color primaries : BT.709 Transfer characteristics : BT.709 Matrix coefficients : BT.709 Audio ID : 2 Format : AAC LC Format/Info : Advanced Audio Codec Low Complexity Codec ID : A_AAC-2 Duration : 29 min 56 s Bit rate : 128 kb/s Channel(s) : 2 channels Channel layout : L R Sampling rate : 44.1 kHz Frame rate : 43.066 FPS (1024 SPF) Compression mode : Lossy Stream size : 27.4 MiB (5%) Language : Japanese Default : Yes Forced : No
昨天 07:07 特摄连载
HD 1080p from TVer. General Unique ID : 299866145939629348367484542495208741684 (0xE1981E754C123267DE8EF9D2705B9B34) Complete name : [MagicStar] Ultraman Decker EP19 [WEBDL] [1080p].mkv Format : Matroska Format version : Version 4 File size : 487 MiB Duration : 24 min 41 s Overall bit rate mode : Variable Overall bit rate : 2 759 kb/s Writing application : Lavf57.48.101 Writing library : Lavf57.48.101 Video ID : 1 Format : AVC Format/Info : Advanced Video Codec Format profile : [email protected] Format settings : CABAC / 4 Ref Frames Format settings, CABAC : Yes Format settings, Reference fra : 4 frames Codec ID : V_MPEG4/ISO/AVC Duration : 24 min 40 s Bit rate mode : Variable Maximum bit rate : 4 045 kb/s Width : 1 920 pixels Height : 1 080 pixels Display aspect ratio : 16:9 Frame rate mode : Constant Frame rate : 29.970 (30000/1001) FPS Color space : YUV Chroma subsampling : 4:2:0 Bit depth : 8 bits Scan type : Progressive Default : No Forced : No Color range : Limited Color primaries : BT.709 Transfer characteristics : BT.709 Matrix coefficients : BT.709 VARIANT_BITRATE : 3168000 Audio ID : 2 Format : AAC LC Format/Info : Advanced Audio Codec Low Complexity Codec ID : A_AAC-2 Duration : 24 min 41 s Channel(s) : 2 channels Channel layout : L R Sampling rate : 48.0 kHz Frame rate : 46.875 FPS (1024 SPF) Compression mode : Lossy Delay relative to video : -67 ms Language : English Default : Yes Forced : No Comment : en (Main) VARIANT_BITRATE : 334400
昨天 07:07 特摄连载
名侦探柯南 M24 绯色的子弹 / 绯色的弹丸 / Detective Conan The Scarlet Bullet / 名探偵コナン 緋色の弾丸 BDRip 10-bit 1080p HEVC + FLAC,MKV 格式。剧场版全篇约 4.6 GB。 外挂 MKA 格式 FLAC 5.1。 这个项目与 银色子弹字幕组 合作,感谢他们精心制作的字幕。 This project is in cooperation with SBSUB . Thanks to them for elaborating Chinese subtitles. 作为一部年更动画,其画面特性与其前作别无二致。由于其混乱的制作流程,在大部分场景中基本没有噪点,使得本就严重的色带现象雪上加霜。而在部分背景中又有较强的噪点,为我们的去色带处理平添难度。我们在分离噪点后,使用了强度较高的去色带处理,以保证绝大部分色带都被干净去除,同时保护并增强了较弱的纹理使其不被破坏。本作的线条还是一如既往的锐利,并且伴随着时有时无的锯齿。我们使用了常规的抗锯齿处理,以优化线条质量。 For an annual anime, its image is unsurprisingly not much different from the previous one. Due to its chaotic production process, most scenes are largely free of noise, making heavy colour banding more apparent. However, very strong noise is present in some of the backgrounds, adding to the difficulty of our de-banding process. After separating the noise, we used a high-intensity de-banding. It ensures that most of the colour banding is removed cleanly, while protecting and enhancing the weaker textures from being destroyed. The lines are as sharp as ever and with occasional aliasing. Finally, we performed regular anti-aliasing treatment to optimise the quality of the lines. 感谢所有资源提供者 / Thank to all resource providers: CDs: [email protected] 本资源扫图格式为 WebP,浏览详情请参见 https://vcb-s.com/archives/7949 。 Please refer to https://vcb-s.com/archives/7949 if you have trouble viewing WebP images. 有关 TSDM 合购区的详情请参见 https://www.tsdm39.net/forum.php?mod=viewthread&tid=879923 。 Please refer to https://www.tsdm39.net/forum.php?mod=viewthread&tid=879923 for more information about jointly purchased music. 基础播放器教程: PotPlayer / MPC-HC / IINA 进阶播放器教程: madVR / PotPlayer+madVR / mpv 中文字幕分享区: Anime 分享论坛 (请善用搜索) 项目计划与列表: VCB-Studio 项目列表 (每月初更新) Comparison (right click on the image and open it in a new tab to see the full-size one) Source________________________________________________Encode
前天 07:18 动画更新员
thumbs:https://fy-raws.imgbb.com/ 一些必要的说明(随时添加): 1、神州大地,已无净土,请多保重!The Great Land of China, There is no pure land, Please take care of yourself! 2、都2020年了,我在想该改变什么了。如今x264太成熟了,都熟透了,都没有什么改进的地方了,想着是不是该玩玩x265了?由于只做了去色带的滤镜,还算是裸压,在保证去色带滤镜压制完的成果能够最大限度地保留,自己参考了下最新的x265的官方手册以及其他压制组的经验,调教完成了属于“肥羊-Raws”的x265v0.1参数。当然并不是说x264就不压了,只是目前先以“肥羊-Raws网站”的“计划制作的动漫名单”中“橙黄色”字的动漫将使用x265来压制。目前只有2部动漫会压制x265,一是《爱书的下克上:为了成为图书管理员不择手段!》;二是《海盗战记》。网址:https://fy-raws.org/resource_lists/2019-japanese-anime/ 3、以2020年为基准,2020前也就是2019年甚至更早以前播放的番剧用x264来压制,从2020年播放的番剧才开始用x265来压制。当然排除两部x265实验品:《爱书的下克上 第1季》和《海盗战记》,看来x265现在已经相当成熟了,可以大胆使用了。 一些常见问题之回答: I am ten years old.2010-05-15~2020-05-15 If you have any questions, please email me and I will try to answer them. If you not from china, send to:[email protected] If you from china, send to:[email protected] twitter:https://twitter.com/fyraws Language:Simplified Chinese, Traditional Chinese, English, Japanese, Korean 1、10周年是什么? 答:2010年5月15日,是肥羊的诞辰。今年已经2020年了嘛,所以已经10岁了。计划自己给自己一份礼物(详细见图),目前就一个人还坚持了10年也不容易啊! 2、压缩包密码是什么? 答:付出了喜悦@fy-raws.org(格式为:账号ID+at符号+网站网址),目前已知的解压软件只有WINRAR支持汉字密码,请使用WINRAR解压! 3、肥羊压制有什么特点? 答:除非特殊要求,否则一律x264编码+8bit,方便任何设备播放并且绝对兼容硬解。算裸压,但有朋友反映一话的mkv文件太大,所以现在压的视频均考虑到容量问题。不考虑MP4封装,因为章节文件能兼容“简体中文、英文、日文、韩文”,MP4并不支持,并且就算苹果系统,也已经有支持MKV的播放,再去下载第三方APP即可。 4、质量好吗? 答:从来没“王婆卖瓜自卖自夸”过,请你别信任何社区有人对你说“肥羊压制的非常好”之类的话,反之也请你别去信有人说“肥羊压制的非常差”之类的话。这个问题本身就非常主观,喜欢的依然喜欢,讨厌的依然讨厌,你去问一个讨厌的人自然人家就说差,反之喜欢的会告诉你推荐你收。所以,说这么多,六个字总结:问这有意义吗? 5、发片有时间吗? 答:既是动漫爱好者也是一名上班族,目前只有我一人撑着,因为喜欢动漫所以我想应该能坚持下去。由于平常上班,所以玩不了PT,我知道很多片源都是通过PT发布的。有片源就压,下班有时间就编写AVS脚本开压,然后传完百度盘腾讯盘后就发布种子。所以并没有固定时间。 6、有海外联系方式吗? 答:当然有,一个是邮箱。另一个是推特 【国内邮箱:[email protected] | 国外邮箱:[email protected]】请不要用如网易新浪腾讯等国内邮箱往国外邮箱发信息,反之也不要用国外邮箱往国内邮箱发信息,一经发现一律不回! 其次是推特twitter,想了想还是重新注册了个号来对外,我有个主号的。地址:https://twitter.com/fyraws。欢迎关注。 最后是特殊要求,有一些事情需要咨询或请求的,也依照邮箱地址按国内国外划分。假如你是非大陆人,请一律发邮件至国外邮箱,邮件中如果你想指定无论什么社交APP交流都可以,并且语言支持:简体中文、正體中文、English、日本語、한국어。(嗯没错,日语韩语都看得懂)
前天 07:16 AnimeRaw
thumbs:https://fy-raws.imgbb.com/ 一些必要的说明(随时添加): 1、神州大地,已无净土,请多保重!The Great Land of China, There is no pure land, Please take care of yourself! 2、都2020年了,我在想该改变什么了。如今x264太成熟了,都熟透了,都没有什么改进的地方了,想着是不是该玩玩x265了?由于只做了去色带的滤镜,还算是裸压,在保证去色带滤镜压制完的成果能够最大限度地保留,自己参考了下最新的x265的官方手册以及其他压制组的经验,调教完成了属于“肥羊-Raws”的x265v0.1参数。当然并不是说x264就不压了,只是目前先以“肥羊-Raws网站”的“计划制作的动漫名单”中“橙黄色”字的动漫将使用x265来压制。目前只有2部动漫会压制x265,一是《爱书的下克上:为了成为图书管理员不择手段!》;二是《海盗战记》。网址:https://fy-raws.org/resource_lists/2019-japanese-anime/ 3、以2020年为基准,2020前也就是2019年甚至更早以前播放的番剧用x264来压制,从2020年播放的番剧才开始用x265来压制。当然排除两部x265实验品:《爱书的下克上 第1季》和《海盗战记》,看来x265现在已经相当成熟了,可以大胆使用了。 一些常见问题之回答: I am ten years old.2010-05-15~2020-05-15 If you have any questions, please email me and I will try to answer them. If you not from china, send to:[email protected] If you from china, send to:[email protected] twitter:https://twitter.com/fyraws Language:Simplified Chinese, Traditional Chinese, English, Japanese, Korean 1、10周年是什么? 答:2010年5月15日,是肥羊的诞辰。今年已经2020年了嘛,所以已经10岁了。计划自己给自己一份礼物(详细见图),目前就一个人还坚持了10年也不容易啊! 2、压缩包密码是什么? 答:付出了喜悦@fy-raws.org(格式为:账号ID+at符号+网站网址),目前已知的解压软件只有WINRAR支持汉字密码,请使用WINRAR解压! 3、肥羊压制有什么特点? 答:除非特殊要求,否则一律x264编码+8bit,方便任何设备播放并且绝对兼容硬解。算裸压,但有朋友反映一话的mkv文件太大,所以现在压的视频均考虑到容量问题。不考虑MP4封装,因为章节文件能兼容“简体中文、英文、日文、韩文”,MP4并不支持,并且就算苹果系统,也已经有支持MKV的播放,再去下载第三方APP即可。 4、质量好吗? 答:从来没“王婆卖瓜自卖自夸”过,请你别信任何社区有人对你说“肥羊压制的非常好”之类的话,反之也请你别去信有人说“肥羊压制的非常差”之类的话。这个问题本身就非常主观,喜欢的依然喜欢,讨厌的依然讨厌,你去问一个讨厌的人自然人家就说差,反之喜欢的会告诉你推荐你收。所以,说这么多,六个字总结:问这有意义吗? 5、发片有时间吗? 答:既是动漫爱好者也是一名上班族,目前只有我一人撑着,因为喜欢动漫所以我想应该能坚持下去。由于平常上班,所以玩不了PT,我知道很多片源都是通过PT发布的。有片源就压,下班有时间就编写AVS脚本开压,然后传完百度盘腾讯盘后就发布种子。所以并没有固定时间。 6、有海外联系方式吗? 答:当然有,一个是邮箱。另一个是推特 【国内邮箱:[email protected] | 国外邮箱:[email protected]】请不要用如网易新浪腾讯等国内邮箱往国外邮箱发信息,反之也不要用国外邮箱往国内邮箱发信息,一经发现一律不回! 其次是推特twitter,想了想还是重新注册了个号来对外,我有个主号的。地址:https://twitter.com/fyraws。欢迎关注。 最后是特殊要求,有一些事情需要咨询或请求的,也依照邮箱地址按国内国外划分。假如你是非大陆人,请一律发邮件至国外邮箱,邮件中如果你想指定无论什么社交APP交流都可以,并且语言支持:简体中文、正體中文、English、日本語、한국어。(嗯没错,日语韩语都看得懂)
前天 07:14 AnimeRaw
thumbs:https://fy-raws.imgbb.com/ 一些必要的说明(随时添加): 1、神州大地,已无净土,请多保重!The Great Land of China, There is no pure land, Please take care of yourself! 2、都2020年了,我在想该改变什么了。如今x264太成熟了,都熟透了,都没有什么改进的地方了,想着是不是该玩玩x265了?由于只做了去色带的滤镜,还算是裸压,在保证去色带滤镜压制完的成果能够最大限度地保留,自己参考了下最新的x265的官方手册以及其他压制组的经验,调教完成了属于“肥羊-Raws”的x265v0.1参数。当然并不是说x264就不压了,只是目前先以“肥羊-Raws网站”的“计划制作的动漫名单”中“橙黄色”字的动漫将使用x265来压制。目前只有2部动漫会压制x265,一是《爱书的下克上:为了成为图书管理员不择手段!》;二是《海盗战记》。网址:https://fy-raws.org/resource_lists/2019-japanese-anime/ 3、以2020年为基准,2020前也就是2019年甚至更早以前播放的番剧用x264来压制,从2020年播放的番剧才开始用x265来压制。当然排除两部x265实验品:《爱书的下克上 第1季》和《海盗战记》,看来x265现在已经相当成熟了,可以大胆使用了。 一些常见问题之回答: I am ten years old.2010-05-15~2020-05-15 If you have any questions, please email me and I will try to answer them. If you not from china, send to:[email protected] If you from china, send to:[email protected] twitter:https://twitter.com/fyraws Language:Simplified Chinese, Traditional Chinese, English, Japanese, Korean 1、10周年是什么? 答:2010年5月15日,是肥羊的诞辰。今年已经2020年了嘛,所以已经10岁了。计划自己给自己一份礼物(详细见图),目前就一个人还坚持了10年也不容易啊! 2、压缩包密码是什么? 答:付出了喜悦@fy-raws.org(格式为:账号ID+at符号+网站网址),目前已知的解压软件只有WINRAR支持汉字密码,请使用WINRAR解压! 3、肥羊压制有什么特点? 答:除非特殊要求,否则一律x264编码+8bit,方便任何设备播放并且绝对兼容硬解。算裸压,但有朋友反映一话的mkv文件太大,所以现在压的视频均考虑到容量问题。不考虑MP4封装,因为章节文件能兼容“简体中文、英文、日文、韩文”,MP4并不支持,并且就算苹果系统,也已经有支持MKV的播放,再去下载第三方APP即可。 4、质量好吗? 答:从来没“王婆卖瓜自卖自夸”过,请你别信任何社区有人对你说“肥羊压制的非常好”之类的话,反之也请你别去信有人说“肥羊压制的非常差”之类的话。这个问题本身就非常主观,喜欢的依然喜欢,讨厌的依然讨厌,你去问一个讨厌的人自然人家就说差,反之喜欢的会告诉你推荐你收。所以,说这么多,六个字总结:问这有意义吗? 5、发片有时间吗? 答:既是动漫爱好者也是一名上班族,目前只有我一人撑着,因为喜欢动漫所以我想应该能坚持下去。由于平常上班,所以玩不了PT,我知道很多片源都是通过PT发布的。有片源就压,下班有时间就编写AVS脚本开压,然后传完百度盘腾讯盘后就发布种子。所以并没有固定时间。 6、有海外联系方式吗? 答:当然有,一个是邮箱。另一个是推特 【国内邮箱:[email protected] | 国外邮箱:[email protected]】请不要用如网易新浪腾讯等国内邮箱往国外邮箱发信息,反之也不要用国外邮箱往国内邮箱发信息,一经发现一律不回! 其次是推特twitter,想了想还是重新注册了个号来对外,我有个主号的。地址:https://twitter.com/fyraws。欢迎关注。 最后是特殊要求,有一些事情需要咨询或请求的,也依照邮箱地址按国内国外划分。假如你是非大陆人,请一律发邮件至国外邮箱,邮件中如果你想指定无论什么社交APP交流都可以,并且语言支持:简体中文、正體中文、English、日本語、한국어。(嗯没错,日语韩语都看得懂)
前天 07:14 AnimeRaw
HD 1080p from Abema TV. General Unique ID : 141139600118572607421232645599657629169 (0x6A2E7F8B64A24450DED7A9D886FA95F1) Complete name : [MagicStar] Fukumen D EP07 [WEBDL] [1080p].mkv Format : Matroska Format version : Version 4 File size : 1.41 GiB Duration : 48 min 3 s Overall bit rate : 4 198 kb/s Writing application : Lavf57.48.101 Writing library : Lavf57.48.101 Video ID : 1 Format : AVC Format/Info : Advanced Video Codec Format profile : [email protected] Format settings : CABAC / 4 Ref Frames Format settings, CABAC : Yes Format settings, Reference fra : 4 frames Codec ID : V_MPEG4/ISO/AVC Duration : 48 min 3 s Nominal bit rate : 4 000 kb/s Width : 1 920 pixels Height : 1 080 pixels Display aspect ratio : 16:9 Frame rate mode : Constant Frame rate : 23.976 (24000/1001) FPS Color space : YUV Chroma subsampling : 4:2:0 Bit depth : 8 bits Scan type : Progressive Bits/(Pixel*Frame) : 0.080 Writing library : x264 core 148 r265 3b70645 Encoding settings : cabac=1 / ref=2 / deblock=1:0:0 / analyse=0x1:0x111 / me=hex / subme=7 / psy=1 / psy_rd=1.00:0.00 / mixed_ref=1 / me_range=16 / chroma_me=1 / trellis=1 / 8x8dct=0 / cqm=0 / deadzone=21,11 / fast_pskip=1 / chroma_qp_offset=-2 / threads=9 / lookahead_threads=1 / sliced_threads=0 / nr=0 / decimate=1 / interlaced=0 / bluray_compat=0 / constrained_intra=0 / bframes=3 / b_pyramid=2 / b_adapt=1 / b_bias=0 / direct=1 / weightb=1 / open_gop=0 / weightp=2 / keyint=1000 / keyint_min=501 / scenecut=0 / intra_refresh=0 / rc_lookahead=40 / rc=2pass / mbtree=1 / bitrate=4000 / ratetol=1.0 / qcomp=0.60 / qpmin=0 / qpmax=69 / qpstep=4 / cplxblur=20.0 / qblur=0.5 / ip_ratio=1.40 / aq=1:1.00 Default : Yes Forced : No Audio ID : 2 Format : AAC LC Format/Info : Advanced Audio Codec Low Complexity Codec ID : A_AAC-2 Duration : 48 min 3 s Channel(s) : 2 channels Channel layout : L R Sampling rate : 44.1 kHz Frame rate : 43.066 FPS (1024 SPF) Compression mode : Lossy Delay relative to video : -23 ms Default : Yes Forced : No
11/27 11:45 日剧更新了