旋风动漫BT资源发布索引 | 汇聚动漫BT/ED资源
为您找到相关结果个     结果不正确?请到这里反馈!
thumbs:https://fy-raws.imgbb.com/ 一些必要的说明(随时添加): 1、神州大地,已无净土,请多保重!The Great Land of China, There is no pure land, Please take care of yourself! 2、都2020年了,我在想该改变什么了。如今x264太成熟了,都熟透了,都没有什么改进的地方了,想着是不是该玩玩x265了?由于只做了去色带的滤镜,还算是裸压,在保证去色带滤镜压制完的成果能够最大限度地保留,自己参考了下最新的x265的官方手册以及其他压制组的经验,调教完成了属于“肥羊-Raws”的x265v0.1参数。当然并不是说x264就不压了,只是目前先以“肥羊-Raws网站”的“计划制作的动漫名单”中“橙黄色”字的动漫将使用x265来压制。目前只有2部动漫会压制x265,一是《爱书的下克上:为了成为图书管理员不择手段!》;二是《海盗战记》。网址:https://fy-raws.org/resource_lists/2019-japanese-anime/ 3、以2020年为基准,2020前也就是2019年甚至更早以前播放的番剧用x264来压制,从2020年播放的番剧才开始用x265来压制。当然排除两部x265实验品:《爱书的下克上 第1季》和《海盗战记》,看来x265现在已经相当成熟了,可以大胆使用了。 一些常见问题之回答: I am ten years old.2010-05-15~2020-05-15 If you have any questions, please email me and I will try to answer them. If you not from china, send to:[email protected] If you from china, send to:[email protected] twitter:https://twitter.com/fyraws Language:Simplified Chinese, Traditional Chinese, English, Japanese, Korean 1、10周年是什么? 答:2010年5月15日,是肥羊的诞辰。今年已经2020年了嘛,所以已经10岁了。计划自己给自己一份礼物(详细见图),目前就一个人还坚持了10年也不容易啊! 2、压缩包密码是什么? 答:付出了喜悦@fy-raws.org(格式为:账号ID+at符号+网站网址),目前已知的解压软件只有WINRAR支持汉字密码,请使用WINRAR解压! 3、肥羊压制有什么特点? 答:除非特殊要求,否则一律x264编码+8bit,方便任何设备播放并且绝对兼容硬解。算裸压,但有朋友反映一话的mkv文件太大,所以现在压的视频均考虑到容量问题。不考虑MP4封装,因为章节文件能兼容“简体中文、英文、日文、韩文”,MP4并不支持,并且就算苹果系统,也已经有支持MKV的播放,再去下载第三方APP即可。 4、质量好吗? 答:从来没“王婆卖瓜自卖自夸”过,请你别信任何社区有人对你说“肥羊压制的非常好”之类的话,反之也请你别去信有人说“肥羊压制的非常差”之类的话。这个问题本身就非常主观,喜欢的依然喜欢,讨厌的依然讨厌,你去问一个讨厌的人自然人家就说差,反之喜欢的会告诉你推荐你收。所以,说这么多,六个字总结:问这有意义吗? 5、发片有时间吗? 答:既是动漫爱好者也是一名上班族,目前只有我一人撑着,因为喜欢动漫所以我想应该能坚持下去。由于平常上班,所以玩不了PT,我知道很多片源都是通过PT发布的。有片源就压,下班有时间就编写AVS脚本开压,然后传完百度盘腾讯盘后就发布种子。所以并没有固定时间。 6、有海外联系方式吗? 答:当然有,一个是邮箱。另一个是推特 【国内邮箱:[email protected] | 国外邮箱:[email protected]】请不要用如网易新浪腾讯等国内邮箱往国外邮箱发信息,反之也不要用国外邮箱往国内邮箱发信息,一经发现一律不回! 其次是推特twitter,想了想还是重新注册了个号来对外,我有个主号的。地址:https://twitter.com/fyraws。欢迎关注。 最后是特殊要求,有一些事情需要咨询或请求的,也依照邮箱地址按国内国外划分。假如你是非大陆人,请一律发邮件至国外邮箱,邮件中如果你想指定无论什么社交APP交流都可以,并且语言支持:简体中文、正體中文、English、日本語、한국어。(嗯没错,日语韩语都看得懂)
07/04 00:19 AnimeRaw
BDRip 大家久等了,本次 SHAFT 也是發揮了傳統藝能,在 BD 版狂修。搞得第 6、8 集的時間軸基本重做。同時也需要花時間另外看一遍全片,尋找有沒有修改過/新加入的螢幕字。最近字幕組的組員們還在忙其他的事情,所以 BD 字幕修得晚了點,非常不好意思。 不過 SHAFT 修正歸修正,第 4 集和第 7 集音畫不同步的問題卻是到 BD 版都沒有修,我們只好手動調整了:第 4 話除 OP / ED 外,我們將音軌提前了 0.2 秒,第 7 話除 OP / ED 外,我們將音軌提前了 0.15 秒。如果有觀眾朋友們想用 SweetSub 的外掛字幕搭配其他人製作的 BDRip,請務必 參考 github 庫中的說明 。 歡迎大家關注 SweetSub 的 telegram 頻道 和圓環記錄攻略組的 微博 若想了解更多『魔法紀錄』相關詳細內容,歡迎查閱 魔法紀錄中文 Wiki (可能包含劇透內容) 點此下載字幕文件 SweetSub 的字幕在二次使用時默認遵從 知識共享 署名-非商業性使用-禁止演繹 4.0 許可協議 (Creative Common BY-NC-ND 4.0) ,在遵循規則的情況下可以在不需要與我聯繫的情況下自由轉載、使用。 但是,對於調整時間軸用於匹配自己的不同片源的小伙伴,可以例外在署名、非商業使用的情況下,調整時間軸,不需要與我聯繫,自由轉載、使用。 如果對字幕做了除了調整時間軸以外的修改,請不要公開發布,留著自己看就好,謝謝。 詳細說明請 點擊這裡查看 推薦大家使用以下播放器。 Windows: MPC-BE macOS: IINA iOS: nPlayer Android: MX Player SweetSub
03/02 23:58 动画更新员
BDRip 大家久等了,本次 SHAFT 也是发挥了传统艺能,在 BD 版狂修。搞得第 6、8 集的时间轴基本重做。同时也需要花时间另外看一遍全片,寻找有没有修改过/新加入的屏幕字。最近字幕组的组员们还在忙其他的事情,所以 BD 字幕修得晚了点,非常不好意思。 不过 SHAFT 修正归修正,第 4 集和第 7 集音画不同步的问题却是到 BD 版都没有修,我们只好手动调整了:第 4 话除 OP / ED 外,我们将音轨提前了 0.2 秒,第 7 话除 OP / ED 外,我们将音轨提前了 0.15 秒。如果有观众朋友们想用 SweetSub 的外挂字幕搭配其他人制作的 BDRip,请务必 参考 github 库中的说明 。 欢迎大家关注 SweetSub 的 telegram 频道 和圆环记录攻略组的 微博 若想了解更多『魔法纪录』相关详细内容,欢迎查阅 魔法纪录中文 Wiki (可能包含剧透内容) 点此下载字幕文件 SweetSub 的字幕在二次使用时默认遵从 知识共享 署名-非商业性使用-禁止演绎 4.0 许可协议 (Creative Common BY-NC-ND 4.0) ,在遵循规则的情况下可以在不需要与我联系的情况下自由转载、使用。 但是,对于调整时间轴用于匹配自己的不同片源的小伙伴,可以例外在署名、非商业使用的情况下,调整时间轴,不需要与我联系,自由转载、使用。 如果对字幕做了除了调整时间轴以外的修改,请不要公开发布,留着自己看就好,谢谢。 详细说明请 点击这里查看 推荐大家使用以下播放器。 Windows: MPC-BE macOS: IINA iOS: nPlayer Android: MX Player SweetSub
03/02 23:58 动画更新员
魔法纪录 魔法少女小圆外传 第二季 -觉醒前夜- / Magia Record: Puella Magi Madoka Magica Side Story 2nd Season - The Eve of Awakening / マギアレコード 魔法少女まどか☆マギカ外伝 2nd SEASON -覚醒前夜- 压制:██████@LoliHouse MediaInfo General Unique ID : 59976191734938725838334743552012793605 (0x2D1EFE8E75B0736D26C53ED8F30B3705) Complete name : W:\[Yusyabu&LoliHouse] Magia Record S2 - Vol.3 [BDRip 1080p HEVC-10bit FLAC]\[Yusyabu&LoliHouse] Magia Record S2 - 06 [BDRip 1080p HEVC-10bit FLAC].mkv Format : Matroska Format version : Version 4 File size : 1.37 GiB Duration : 23 min 37 s Overall bit rate mode : Variable Overall bit rate : 8 275 kb/s Movie name : 私にしかできないことです Track name/Position : 6 Track name/Total : 8 Encoded date : UTC 2022-02-20 10:42:48 Writing application : mkvmerge v64.0.0 ('Willows') 64-bit Writing library : libebml v1.4.2 + libmatroska v1.6.4 Attachments : 0fbb2504-a459-49eb-b199-cefa15879098-384.otf / 1fa1fa38-5bd4-498f-990a-4c20c001df27-384.otf / 1fa1fa38-5bd4-498f-990a-4c20c001df27-416.otf / 8c540005-819f-4daf-aaa1-8d6f81d5053c-64.otf / 9ba96e3a-ac74-434d-a825-c1d3870fb978-32.otf / 9d197b02-6990-4083-9178-69eccb5ce0e8-384.otf / 19d9efa8-3e46-49dc-821d-f574b1421474-384.otf / 19d9efa8-3e46-49dc-821d-f574b1421474-416.otf / 77e2e29c-da42-41fb-ba29-df218b3779aa-384.otf / 80c17d0e-9ff4-4240-9c1b-45b6024e042f-384.otf / 81d98e37-c4ac-4ba5-b15f-c4881bdd8854-32.otf / 93dc471b-149d-4d6a-bd0d-663caa3c3c2e-384.otf / 792c0210-17cc-42a1-b546-728aed9b6afe-32.otf / 4529b2c4-6f7d-4947-844d-e429aae9ebbd-192.otf / 6819cbf4-8a06-4945-9b4c-49ad3f089f32-384.otf / 7945c739-da34-4855-ad19-aef0f03de57d-384.otf / 17560ba7-0a3b-450a-83f9-a84926262987-64.otf / 296517de-03ee-4d85-952d-bdd9a9363bb8-384.otf / 296517de-03ee-4d85-952d-bdd9a9363bb8-416.otf / b289f396-a61a-48a9-ab35-4c4e1fd09c1e-384.otf / cff0c41b-8180-4738-b962-625a148e246b-384.otf / d171254a-5bf1-4779-95e2-16ee2f338662-64.otf / dc2d5f3e-4eee-4315-8d46-dd34a2f47498-384.otf / dec5229f-aab5-4eb2-beac-5da4ed12261b-384.otf / dec5229f-aab5-4eb2-beac-5da4ed12261b-416.otf / e8c3ef5b-aeec-4581-b2f0-95f21f6f57c8-384.otf / e525acd5-5f9c-4527-bf57-d408fd4e0349-384.otf Video ID : 1 Format : HEVC Format/Info : High Efficiency Video Coding Format profile : Main [email protected]@High Codec ID : V_MPEGH/ISO/HEVC Duration : 23 min 37 s Bit rate : 6 801 kb/s Width : 1 920 pixels Height : 1 080 pixels Display aspect ratio : 16:9 Frame rate mode : Constant Frame rate : 23.976 (24000/1001) FPS Color space : YUV Chroma subsampling : 4:2:0 Bit depth : 10 bits Bits/(Pixel*Frame) : 0.137 Stream size : 1.12 GiB (82%) Writing library : x265 3.5g2b25c9ba0
02/21 15:22 动画更新员
魔法纪录 魔法少女小圆外传 第二季 -觉醒前夜- / Magia Record: Puella Magi Madoka Magica Side Story 2nd Season - The Eve of Awakening / マギアレコード 魔法少女まどか☆マギカ外伝 2nd SEASON -覚醒前夜- 压制:██████@LoliHouse MediaInfo General Unique ID : 239679252653876910583192911341265250797 (0xB4508B836135C970E65DA6E306BE69ED) Complete name : W:\[Yusyabu&LoliHouse] Magia Record S2 - Vol.2 [BDRip 1080p HEVC-10bit FLAC]\[Yusyabu&LoliHouse] Magia Record S2 - 04 [BDRip 1080p HEVC-10bit FLAC].mkv Format : Matroska Format version : Version 4 File size : 1.30 GiB Duration : 23 min 37 s Overall bit rate mode : Variable Overall bit rate : 7 861 kb/s Movie name : お前はそれでいいのかよ Track name/Position : 4 Track name/Total : 8 Encoded date : UTC 2022-02-20 07:37:41 Writing application : mkvmerge v64.0.0 ('Willows') 64-bit Writing library : libebml v1.4.2 + libmatroska v1.6.4 Attachments : 0fbb2504-a459-49eb-b199-cefa15879098-384.otf / 1fa1fa38-5bd4-498f-990a-4c20c001df27-384.otf / 1fa1fa38-5bd4-498f-990a-4c20c001df27-416.otf / 8c540005-819f-4daf-aaa1-8d6f81d5053c-64.otf / 9ba96e3a-ac74-434d-a825-c1d3870fb978-32.otf / 9d197b02-6990-4083-9178-69eccb5ce0e8-384.otf / 19d9efa8-3e46-49dc-821d-f574b1421474-384.otf / 19d9efa8-3e46-49dc-821d-f574b1421474-416.otf / 77e2e29c-da42-41fb-ba29-df218b3779aa-384.otf / 80c17d0e-9ff4-4240-9c1b-45b6024e042f-384.otf / 81d98e37-c4ac-4ba5-b15f-c4881bdd8854-32.otf / 93dc471b-149d-4d6a-bd0d-663caa3c3c2e-384.otf / 792c0210-17cc-42a1-b546-728aed9b6afe-32.otf / 4529b2c4-6f7d-4947-844d-e429aae9ebbd-192.otf / 6819cbf4-8a06-4945-9b4c-49ad3f089f32-384.otf / 7945c739-da34-4855-ad19-aef0f03de57d-384.otf / 17560ba7-0a3b-450a-83f9-a84926262987-64.otf / 296517de-03ee-4d85-952d-bdd9a9363bb8-384.otf / 296517de-03ee-4d85-952d-bdd9a9363bb8-416.otf / b289f396-a61a-48a9-ab35-4c4e1fd09c1e-384.otf / cff0c41b-8180-4738-b962-625a148e246b-384.otf / d171254a-5bf1-4779-95e2-16ee2f338662-64.otf / dc2d5f3e-4eee-4315-8d46-dd34a2f47498-384.otf / dec5229f-aab5-4eb2-beac-5da4ed12261b-384.otf / dec5229f-aab5-4eb2-beac-5da4ed12261b-416.otf / e8c3ef5b-aeec-4581-b2f0-95f21f6f57c8-384.otf / e525acd5-5f9c-4527-bf57-d408fd4e0349-384.otf Video ID : 1 Format : HEVC Format/Info : High Efficiency Video Coding Format profile : Main [email protected]@High Codec ID : V_MPEGH/ISO/HEVC Duration : 23 min 37 s Bit rate : 6 200 kb/s Width : 1 920 pixels Height : 1 080 pixels Display aspect ratio : 16:9 Frame rate mode : Constant Frame rate : 23.976 (24000/1001) FPS Color space : YUV Chroma subsampling : 4:2:0 Bit depth : 10 bits Bits/(Pixel*Frame) : 0.125 Stream size : 1.02 GiB (79%) Writing library : x265 3.5g2b25c9ba0
02/21 15:22 动画更新员
魔法纪录 魔法少女小圆外传 第二季 -觉醒前夜- / Magia Record: Puella Magi Madoka Magica Side Story 2nd Season - The Eve of Awakening / マギアレコード 魔法少女まどか☆マギカ外伝 2nd SEASON -覚醒前夜- v2修正: 環うい 改译为 环初 。视频无修改。 压制:██████@LoliHouse MediaInfo General Unique ID : 45849148043441374373192015694596224334 (0x227E3986DDD8495008203D143729354E) Complete name : W:\[Yusyabu&LoliHouse] Magia Record S2 - Vol.1 [BDRip 1080p HEVC-10bit FLAC]\[Yusyabu&LoliHouse] Magia Record S2 - 01 [BDRip 1080p HEVC-10bit FLAC].mkv Format : Matroska Format version : Version 4 File size : 1.73 GiB Duration : 23 min 37 s Overall bit rate mode : Variable Overall bit rate : 10.5 Mb/s Movie name : みんなでなら魔法少女になれる気がしたの Track name/Position : 1 Track name/Total : 8 Encoded date : UTC 2022-02-20 11:11:01 Writing application : mkvmerge v64.0.0 ('Willows') 64-bit Writing library : libebml v1.4.2 + libmatroska v1.6.4 Attachments : 0fbb2504-a459-49eb-b199-cefa15879098-384.otf / 1fa1fa38-5bd4-498f-990a-4c20c001df27-384.otf / 1fa1fa38-5bd4-498f-990a-4c20c001df27-416.otf / 8c540005-819f-4daf-aaa1-8d6f81d5053c-64.otf / 9ba96e3a-ac74-434d-a825-c1d3870fb978-32.otf / 9d197b02-6990-4083-9178-69eccb5ce0e8-384.otf / 19d9efa8-3e46-49dc-821d-f574b1421474-384.otf / 19d9efa8-3e46-49dc-821d-f574b1421474-416.otf / 77e2e29c-da42-41fb-ba29-df218b3779aa-384.otf / 80c17d0e-9ff4-4240-9c1b-45b6024e042f-384.otf / 81d98e37-c4ac-4ba5-b15f-c4881bdd8854-32.otf / 93dc471b-149d-4d6a-bd0d-663caa3c3c2e-384.otf / 792c0210-17cc-42a1-b546-728aed9b6afe-32.otf / 4529b2c4-6f7d-4947-844d-e429aae9ebbd-192.otf / 6819cbf4-8a06-4945-9b4c-49ad3f089f32-384.otf / 7945c739-da34-4855-ad19-aef0f03de57d-384.otf / 17560ba7-0a3b-450a-83f9-a84926262987-64.otf / 296517de-03ee-4d85-952d-bdd9a9363bb8-384.otf / 296517de-03ee-4d85-952d-bdd9a9363bb8-416.otf / b289f396-a61a-48a9-ab35-4c4e1fd09c1e-384.otf / cff0c41b-8180-4738-b962-625a148e246b-384.otf / d171254a-5bf1-4779-95e2-16ee2f338662-64.otf / dc2d5f3e-4eee-4315-8d46-dd34a2f47498-384.otf / dec5229f-aab5-4eb2-beac-5da4ed12261b-384.otf / dec5229f-aab5-4eb2-beac-5da4ed12261b-416.otf / e8c3ef5b-aeec-4581-b2f0-95f21f6f57c8-384.otf / e525acd5-5f9c-4527-bf57-d408fd4e0349-384.otf Video ID : 1 Format : HEVC Format/Info : High Efficiency Video Coding Format profile : Main [email protected]@High Codec ID : V_MPEGH/ISO/HEVC Duration : 23 min 37 s Bit rate : 8 771 kb/s Width : 1 920 pixels Height : 1 080 pixels Display aspect ratio : 16:9 Frame rate mode : Constant Frame rate : 23.976 (24000/1001) FPS Color space : YUV Chroma subsampling : 4:2:0 Bit depth : 10 bits Bits/(Pixel*Frame) : 0.176 Stream size : 1.45 GiB (84%) Writing library : x265 3.5g2b25c9ba0+93:[Windows][clang 12.0.1][64 bit] Kasumi 10bit Encoding settings : --preset=slower / --ctu=32 / --crf=14 / --deblock=-1:-1 / --qcomp=0.7 / --pbratio=1.20 / --cbqpoffs=-2 / --crqpoffs=-2 / --aq-mode=3 / --min-keyint=1 / --keyint=720 / --rc-lookahead=80 / --merange=42 / --rdoq-level=1 / --psy-rd=2.5 / --psy-rdoq=0.5 / --no-sao / --no-rect / --no-amp / --no-open-gop / --no-strong-intra-smoothing / --qg-size=16 / --limit-tu=0 / --tu-inter-depth=4 / --tu-intra-depth=4 / --rdpenalty=1 / --tskip / --tskip-fast / --colormatrix=1 / --transfer=1 / --colorprim=1 / --range=limited / --vbv-maxrate=30000 / --level-idc=41 / --crf-max=18 / --min-luma=64 / --max-luma=940 / --vui-hrd-info / --qpfile=EP01.qpf / --output=EP01.encoded.hevc / --csv-log-level=2 / --csv=EP01.csv / --pools=8 / --frame-thread=1 / EP01.raw.mp4 Default : Yes Forced : No Color range : Limited Color primaries : BT.709 Transfer characteristics : BT.709 Matrix coefficients : BT.709 Audio #1 ID : 2 Format : FLAC Format/Info : Free Lossless Audio Codec Codec ID : A_FLAC Duration : 23 min 37 s Bit rate mode : Variable Bit rate : 1 491 kb/s Channel(s) : 2 channels Channel layout : L R Sampling rate : 48.0 kHz Frame rate : 11.719 FPS (4096 SPF) Bit depth : 24 bits Compression mode : Lossless Stream size : 252 MiB (14%) Writing library : libFLAC 1.3.2 (UTC 2017-01-01) Language : Japanese Default : Yes Forced : No Audio #2 ID : 3 Format : Opus Codec ID : A_OPUS Duration : 23 min 37 s Bit rate : 187 kb/s Channel(s) : 2 channels Channel layout : L R Sampling rate : 48.0 kHz Frame rate : 50.000 FPS (960 SPF) Compression mode : Lossy Stream size : 31.7 MiB (2%) Language : Japanese Default : No Forced : No Text #1 ID : 4 Format : ASS Codec ID : S_TEXT/ASS Codec ID/Info : Advanced Sub Station Alpha Duration : 23 min 31 s Bit rate : 102 b/s Count of elements : 340 Compression mode : Lossless Stream size : 17.7 KiB (0%) Title : 简体中文 Language : Chinese Default : Yes Forced : No Text #2 ID : 5 Format : ASS Codec ID : S_TEXT/ASS Codec ID/Info : Advanced Sub Station Alpha Duration : 23 min 31 s Bit rate : 102 b/s Count of elements : 340 Compression mode : Lossless Stream size : 17.7 KiB (0%) Title : 繁體中文 Language : Chinese Default : Yes Forced : No Menu 00:00:00.000 : ja:アバン 00:02:55.050 : ja:Aパート 00:10:03.061 : ja:Bパート 00:20:26.100 : ja:エンディング 00:21:56.065 : ja:Cパート Screenshots: https://slow.pics/c/Zb3fF4ds
02/21 15:22 动画更新员
thumbs:https://fy-raws.imgbb.com/ 一些必要的说明(随时添加): 1、神州大地,已无净土,请多保重!The Great Land of China, There is no pure land, Please take care of yourself! 2、都2020年了,我在想该改变什么了。如今x264太成熟了,都熟透了,都没有什么改进的地方了,想着是不是该玩玩x265了?由于只做了去色带的滤镜,还算是裸压,在保证去色带滤镜压制完的成果能够最大限度地保留,自己参考了下最新的x265的官方手册以及其他压制组的经验,调教完成了属于“肥羊-Raws”的x265v0.1参数。当然并不是说x264就不压了,只是目前先以“肥羊-Raws网站”的“计划制作的动漫名单”中“橙黄色”字的动漫将使用x265来压制。目前只有2部动漫会压制x265,一是《爱书的下克上:为了成为图书管理员不择手段!》;二是《海盗战记》。网址:https://fy-raws.org/resource_lists/2019-japanese-anime/ 3、以2020年为基准,2020前也就是2019年甚至更早以前播放的番剧用x264来压制,从2020年播放的番剧才开始用x265来压制。当然排除两部x265实验品:《爱书的下克上 第1季》和《海盗战记》,看来x265现在已经相当成熟了,可以大胆使用了。 一些常见问题之回答: I am ten years old.2010-05-15~2020-05-15 If you have any questions, please email me and I will try to answer them. If you not from china, send to:[email protected] If you from china, send to:[email protected] twitter:https://twitter.com/fyraws Language:Simplified Chinese, Traditional Chinese, English, Japanese, Korean 1、10周年是什么? 答:2010年5月15日,是肥羊的诞辰。今年已经2020年了嘛,所以已经10岁了。计划自己给自己一份礼物(详细见图),目前就一个人还坚持了10年也不容易啊! 2、压缩包密码是什么? 答:付出了喜悦@fy-raws.org(格式为:账号ID+at符号+网站网址),目前已知的解压软件只有WINRAR支持汉字密码,请使用WINRAR解压! 3、肥羊压制有什么特点? 答:除非特殊要求,否则一律x264编码+8bit,方便任何设备播放并且绝对兼容硬解。算裸压,但有朋友反映一话的mkv文件太大,所以现在压的视频均考虑到容量问题。不考虑MP4封装,因为章节文件能兼容“简体中文、英文、日文、韩文”,MP4并不支持,并且就算苹果系统,也已经有支持MKV的播放,再去下载第三方APP即可。 4、质量好吗? 答:从来没“王婆卖瓜自卖自夸”过,请你别信任何社区有人对你说“肥羊压制的非常好”之类的话,反之也请你别去信有人说“肥羊压制的非常差”之类的话。这个问题本身就非常主观,喜欢的依然喜欢,讨厌的依然讨厌,你去问一个讨厌的人自然人家就说差,反之喜欢的会告诉你推荐你收。所以,说这么多,六个字总结:问这有意义吗? 5、发片有时间吗? 答:既是动漫爱好者也是一名上班族,目前只有我一人撑着,因为喜欢动漫所以我想应该能坚持下去。由于平常上班,所以玩不了PT,我知道很多片源都是通过PT发布的。有片源就压,下班有时间就编写AVS脚本开压,然后传完百度盘腾讯盘后就发布种子。所以并没有固定时间。 6、有海外联系方式吗? 答:当然有,一个是邮箱。另一个是推特 【国内邮箱:[email protected] | 国外邮箱:[email protected]】请不要用如网易新浪腾讯等国内邮箱往国外邮箱发信息,反之也不要用国外邮箱往国内邮箱发信息,一经发现一律不回! 其次是推特twitter,想了想还是重新注册了个号来对外,我有个主号的。地址:https://twitter.com/fyraws。欢迎关注。 最后是特殊要求,有一些事情需要咨询或请求的,也依照邮箱地址按国内国外划分。假如你是非大陆人,请一律发邮件至国外邮箱,邮件中如果你想指定无论什么社交APP交流都可以,并且语言支持:简体中文、正體中文、English、日本語、한국어。(嗯没错,日语韩语都看得懂)
01/29 10:59 动画更新员
魔法纪录 魔法少女小圆外传 第二季 -觉醒前夜- / Magia Record: Puella Magi Madoka Magica Side Story 2nd Season - The Eve of Awakening / マギアレコード 魔法少女まどか☆マギカ外伝 2nd SEASON -覚醒前夜- 白羽:K027 @ 勇者部 黑羽:見崎かすみ @ 勇者部 所有的线条都会得到拯救。 魔法纪录第二季的原盘画质很好,大部分线条和纹理为原生1080p制作。然而,仍有部分线条存在细碎的锯齿。同时,画面存在明显的色带。(真是SHAFT的风格呢!) 魔纪的线条十分的细且锐,形成了非常鲜明的画风。我在处理时,将“在消除锯齿的同时保留原始观感"视为首要目标。具体来说:1)消除部分线条存在的细碎锯齿;2)保留原始的线条粗细;3)保留原始的线条锐度;4)保留原始的线条黑度。 在以往的后处理中,针对锯齿,大家通常会使用一些传统的手段。这些传统方法很多出现于标清时代,对于非原生1080p制作的大部分动画十分适用。然而,魔法纪录作为比较少见的原生1080p制作的动画,其线条细而锐利,并不适用传统的抗锯齿方法。对其进行传统的抗锯齿,会不可避免得导致难以补偿的线条变粗、锐度下降、黑度损失。 我在之前处理同为SHAFT制作的动画 突击莉莉 时,深刻地感受到对类似情况的处理的不易,同时也积累了一些经验。在处理魔法纪录的线条时,我将侧重点转移到“保护观感",开始尝试一些新的方法和新的处理流程,额外注重细度锐度的保护和补偿。 结果证明这些新的尝试是有效的。对于存在锯齿的线条,经过处理后,线条的锯齿被消除,而细度、锐度、黑度、观感得到很好的保留。对于原本就没有锯齿的线条,在处理中完整地保留,与原盘相比不产生损失。 原盘__________________________________________________传统方法__________________________________________________新方法 MediaInfo General Unique ID : 178985435097282212881115159728199911788 (0x86A75745A2B0145341FC45C5116D496C) Complete name : W:\[Yusyabu&LoliHouse] Magia Record S2 - Vol.1 [BDRip 1080p HEVC-10bit FLAC]\[Yusyabu&LoliHouse] Magia Record S2 - 03 [BDRip 1080p HEVC-10bit FLAC].mkv Format : Matroska Format version : Version 4 File size : 1.62 GiB Duration : 23 min 37 s Overall bit rate mode : Variable Overall bit rate : 9 838 kb/s Movie name : 持ちきれないほどあったでしょ Track name/Position : 3 Track name/Total : 8 Encoded date : UTC 2021-12-08 04:57:48 Writing application : mkvmerge v63.0.0 ('Everything') 64-bit Writing library : libebml v1.4.2 + libmatroska v1.6.4 Attachments : 3c7f5dfa-a13f-416d-95bf-dbb71aeaf820-384.otf / 6c33fa83-443f-4731-908a-cf8d0b1e73a3-32.otf / 6e23def9-96f4-47f1-a36a-6af2f7fc7ce6-192.otf / 6f60de41-4940-40f9-a90f-e4f15148209c-384.otf / 6f60de41-4940-40f9-a90f-e4f15148209c-416.otf / 8a8a89e2-392e-4b0b-ab5a-2770a5331cf8-384.otf / 8a8a89e2-392e-4b0b-ab5a-2770a5331cf8-416.otf / 9d18675a-d956-45a6-9e3f-00bbd350c6ad-64.otf / 33d0a900-def9-41b4-8929-8208a7a94f22-384.otf / 90dab580-25fc-4179-969b-bd0eca316076-64.otf / 097daccd-47dc-42db-b585-5d29def561d8-32.otf / 98b65373-efcf-4142-9abb-f6baaf687ecf-384.otf / 194b65b9-3290-463b-af13-38a374429fd6-384.otf / 543dfbd8-e63d-49af-b88f-7fb9757230dd-32.otf / 29114aa5-fa68-4e3f-8fb2-d0fc04a0858d-384.otf / 60711fa9-1323-43aa-8091-ec410fec3d1c-384.otf / 74536b4c-5912-48cd-bb30-7905352e554c-384.otf / b4243450-9852-4468-837f-6defc9643960-384.otf / ba7ecd37-5614-4767-b2c2-612872bc9d01-384.otf / be44b60e-28ef-4f96-b3c7-e2d99b862b29-384.otf / c9e0a0e5-be3e-4e46-a35e-a50be3981593-64.otf / d8342f95-edc5-45d3-ba53-935d30de97b3-384.otf / d8342f95-edc5-45d3-ba53-935d30de97b3-416.otf / dce6d3a4-346d-4474-a447-9606ef45fccc-384.otf / e7fb93e5-6a21-4575-b3d0-3ba3ff8e96d9-384.otf PRODUCTION_STUDIO : 神滨市立大学勇者部 Video ID : 1 Format : HEVC Format/Info : High Efficiency Video Coding Format profile : Main 10@L4.1@High Codec ID : V_MPEGH/ISO/HEVC Duration : 23 min 37 s Bit rate : 8 196 kb/s Width : 1 920 pixels Height : 1 080 pixels Display aspect ratio : 16:9 Frame rate mode : Constant Frame rate : 23.976 (24000/1001) FPS Color space : YUV Chroma subsampling : 4:2:0 Bit depth : 10 bits Bits/(Pixel*Frame) : 0.165 Stream size : 1.35 GiB (83%) Writing library : x265 3.5g2b25c9ba0+93:[Windows][clang 12.0.1][64 bit] Kasumi 10bit Encoding settings : --preset=slower / --ctu=32 / --crf=14 / --deblock=-1:-1 / --qcomp=0.7 / --pbratio=1.20 / --cbqpoffs=-2 / --crqpoffs=-2 / --aq-mode=3 / --min-keyint=1 / --keyint=720 / --rc-lookahead=80 / --merange=42 / --rdoq-level=1 / --psy-rd=2.5 / --psy-rdoq=0.5 / --no-sao / --no-rect / --no-amp / --no-open-gop / --no-strong-intra-smoothing / --qg-size=16 / --limit-tu=0 / --tu-inter-depth=4 / --tu-intra-depth=4 / --rdpenalty=1 / --tskip / --tskip-fast / --colormatrix=1 / --transfer=1 / --colorprim=1 / --range=limited / --vbv-maxrate=30000 / --level-idc=41 / --crf-max=18 / --min-luma=64 / --max-luma=940 / --vui-hrd-info / --qpfile=EP03.qpf / --output=EP03.encoded.hevc / --csv-log-level=2 / --csv=EP03.csv / --pools=8 / --frame-thread=1 / EP03.raw.mp4 Default : Yes Forced : No Color range : Limited Color primaries : BT.709 Transfer characteristics : BT.709 Matrix coefficients : BT.709 Audio #1 ID : 2 Format : FLAC Format/Info : Free Lossless Audio Codec Codec ID : A_FLAC Duration : 23 min 37 s Bit rate mode : Variable Bit rate : 1 436 kb/s Channel(s) : 2 channels Channel layout : L R Sampling rate : 48.0 kHz Frame rate : 11.719 FPS (4096 SPF) Bit depth : 24 bits Compression mode : Lossless Stream size : 243 MiB (15%) Writing library : libFLAC 1.3.2 (UTC 2017-01-01) Language : Japanese Default : Yes Forced : No Audio #2 ID : 3 Format : Opus Codec ID : A_OPUS Duration : 23 min 37 s Bit rate : 184 kb/s Channel(s) : 2 channels Channel layout : L R Sampling rate : 48.0 kHz Frame rate : 50.000 FPS (960 SPF) Compression mode : Lossy Stream size : 31.1 MiB (2%) Language : Japanese Default : No Forced : No Text #1 ID : 4 Format : ASS Codec ID : S_TEXT/ASS Codec ID/Info : Advanced Sub Station Alpha Duration : 23 min 24 s Bit rate : 147 b/s Count of elements : 387 Compression mode : Lossless Stream size : 25.2 KiB (0%) Title : 简体中文 Language : Chinese Default : Yes Forced : No Text #2 ID : 5 Format : ASS Codec ID : S_TEXT/ASS Codec ID/Info : Advanced Sub Station Alpha Duration : 23 min 24 s Bit rate : 147 b/s Count of elements : 387 Compression mode : Lossless Stream size : 25.2 KiB (0%) Title : 繁體中文 Language : Chinese Default : Yes Forced : No Menu 00:00:00.000 : ja:アバン 00:00:45.045 : ja:オープニング 00:02:15.010 : ja:Aパート 00:11:18.011 : ja:Bパート 00:21:45.012 : ja:エンディング 00:23:14.977 : ja:Cパート Screenshots: https://slow.pics/c/Zb3fF4ds
12/08 20:32 动画更新员