旋风动漫BT资源发布索引 | 汇聚动漫BT/ED资源
简 介: “贝伦城”——不属于任何国家,漂浮在太平洋上的城市。 在这个挖掘新的能源“Orgonium”并最受世界关注的城市中,有许多由“恶魔”造成的特殊事件,称为“D灾害”。 D灾害仅有一小部分人知道,“PMC”私人军事公司将对其采取措施。 住在贝伦城的青年修经营着其中之一,但其公司规模很小。此外,他选择这份工作的原因竟是——经济拮据? 木更,一个在贝伦城上学的少女,在公共和私人场合都忠实地支持修的生活。 另一个少女,修曾经所属的主要PMC员工,前女友绫乃,也为修倾注心意。 然而对木更来说,"着实不是什么有趣的事呢"。 木更对修有很强的依恋,核心是两人之间的“契约”。 然而,她是恶魔。 木更根据契约支持着修的生活,并接受修的恶魔退治,而其代价是甜美而危险的“吻”? 爱与契约是他们之间的危险羁绊。他们的命运将走向何方? 第7话 但是没关系 这样就好了 后期:orion、小哭包 时轴:神云都是浮马 压制:冰白 QQ交流群:https://jq.qq.com/?_wv=1027&k=Svfa0KHD TG频道:https://t.me/+7H24kZLhIqoyMjk1 网盘&反馈:http://orion-origin.ysepan.com/ 请使用正规BT下载软件(比特彗星等)下载它,下载完成请尽量保持上传来使大家一起愉快地下载。 本字幕仅供学习交流使用,请在下载24小时内删除,请不要把视频商用!
今天 13:19 动画更新员
角色名字的花語: 錦木千束:錦木->衛矛,花語是:「把你的魅力銘記在心」「危險的遊戲」 井ノ上たきな:タキナ是ギボウシ(擬寶珠, Hosta)的別名->玉簪。花語是「沉著」「冷靜」「安靜的人」,英語的花則是「devotion(獻身)」。 中原ミズキ:ミズキ->山茱萸,花語是「持續」「耐久」「堅毅的愛」 春川フキ:フキ->苳/蕗。花語是「可愛迷人」「公平」「請公正地承認我」「伸張正義」「公平審判」 蛇ノ目エリカ:エリカ->歐石楠。花語是「孤獨」「謙虛」「博愛」「良言」,英語的花語是「solitude(孤獨)」 歡迎大家關注 SweetSub 的 telegram 頻道 。 SweetSub 新開設了 提問箱 ,大家對字幕組有什麼好奇的,或是有報錯,都可以來此提問。問題的回答會發布在 telegram 頻道中。 點此下載字幕文件 SweetSub 的字幕在二次使用時默認遵從 知識共享 署名-非商業性使用-禁止演繹 4.0 許可協議 (Creative Common BY-NC-ND 4.0) ,在遵循規則的情況下可以在不需要與我聯繫的情況下自由轉載、使用。 但是,對於調整時間軸用於匹配自己的不同片源的小伙伴,可以例外在署名、非商業使用的情況下,調整時間軸,不需要與我聯繫,自由轉載、使用。 如果對字幕做了除了調整時間軸以外的修改,請不要公開發布,留著自己看就好,謝謝。 詳細說明請 點擊這裡查看 推薦大家使用以下播放器。 Windows: MPC-BE macOS: IINA iOS: nPlayer Android: MX Player SweetSub
今天 13:19 动画更新员
角色名字的花语: 錦木千束:錦木->卫矛,花语是:「把你的魅力铭记在心」「危险的游戏」 井ノ上たきな:タキナ是ギボウシ(擬宝珠, Hosta)的别名->玉簪。花语是「沉着」「冷静」「安静的人」,英语的花则是「devotion(献身)」。 中原ミズキ:ミズキ->山茱萸,花语是「持续」「耐久」「坚毅的爱」 春川フキ:フキ->苳/蕗。花语是「可爱迷人」「公平」「请公正地承认我」「伸张正义」「公平审判」 蛇ノ目エリカ:エリカ->欧石楠。花语是「孤独」「谦虚」「博爱」「良言」,英语的花语是「solitude(孤独)」 欢迎大家关注 SweetSub 的 telegram 频道 。 SweetSub 新开设了 提问箱 ,大家对字幕组有什么好奇的,或是有报错,都可以来此提问。问题的回答会发布在 telegram 频道中。 点此下载字幕文件 SweetSub 的字幕在二次使用时默认遵从 知识共享 署名-非商业性使用-禁止演绎 4.0 许可协议 (Creative Common BY-NC-ND 4.0) ,在遵循规则的情况下可以在不需要与我联系的情况下自由转载、使用。 但是,对于调整时间轴用于匹配自己的不同片源的小伙伴,可以例外在署名、非商业使用的情况下,调整时间轴,不需要与我联系,自由转载、使用。 如果对字幕做了除了调整时间轴以外的修改,请不要公开发布,留着自己看就好,谢谢。 详细说明请 点击这里查看 推荐大家使用以下播放器。 Windows: MPC-BE macOS: IINA iOS: nPlayer Android: MX Player SweetSub
今天 13:18 动画更新员
角色名字的花语: 錦木千束:錦木->卫矛,花语是:「把你的魅力铭记在心」「危险的游戏」 井ノ上たきな:タキナ是ギボウシ(擬宝珠, Hosta)的别名->玉簪。花语是「沉着」「冷静」「安静的人」,英语的花则是「devotion(献身)」。 中原ミズキ:ミズキ->山茱萸,花语是「持续」「耐久」「坚毅的爱」 春川フキ:フキ->苳/蕗。花语是「可爱迷人」「公平」「请公正地承认我」「伸张正义」「公平审判」 蛇ノ目エリカ:エリカ->欧石楠。花语是「孤独」「谦虚」「博爱」「良言」,英语的花语是「solitude(孤独)」 欢迎大家关注 SweetSub 的 telegram 频道 。 SweetSub 新开设了 提问箱 ,大家对字幕组有什么好奇的,或是有报错,都可以来此提问。问题的回答会发布在 telegram 频道中。 点此下载字幕文件 SweetSub 的字幕在二次使用时默认遵从 知识共享 署名-非商业性使用-禁止演绎 4.0 许可协议 (Creative Common BY-NC-ND 4.0) ,在遵循规则的情况下可以在不需要与我联系的情况下自由转载、使用。 但是,对于调整时间轴用于匹配自己的不同片源的小伙伴,可以例外在署名、非商业使用的情况下,调整时间轴,不需要与我联系,自由转载、使用。 如果对字幕做了除了调整时间轴以外的修改,请不要公开发布,留着自己看就好,谢谢。 详细说明请 点击这里查看 推荐大家使用以下播放器。 Windows: MPC-BE macOS: IINA iOS: nPlayer Android: MX Player SweetSub
今天 13:18 动画更新员
HD 1080p from Youtube official channel. English subtitles added. General Unique ID : 234623837857140489070273010533129356013 (0xB082E851E503B6BE2188006A201582ED) Complete name : [MagicStar] Ultraman Decker Special Episode 01 [WEBDL] [1080p] [YOUTUBE].mkv Format : Matroska Format version : Version 4 File size : 521 MiB Duration : 29 min 46 s Overall bit rate : 2 445 kb/s Encoded date : UTC 2022-08-13 01:31:45 Writing application : mkvmerge v50.0.0 ('Awakenings') 64-bit Writing library : libebml v1.4.0 + libmatroska v1.6.2 Cover : Yes Attachments : cover.png Video ID : 1 Format : AVC Format/Info : Advanced Video Codec Format profile : [email protected] Format settings : CABAC / 3 Ref Frames Format settings, CABAC : Yes Format settings, Reference fra : 3 frames Codec ID : V_MPEG4/ISO/AVC Duration : 29 min 46 s Bit rate : 2 310 kb/s Width : 1 920 pixels Height : 1 080 pixels Display aspect ratio : 16:9 Frame rate mode : Constant Frame rate : 23.976 (24000/1001) FPS Color space : YUV Chroma subsampling : 4:2:0 Bit depth : 8 bits Scan type : Progressive Bits/(Pixel*Frame) : 0.046 Stream size : 492 MiB (94%) Writing library : x264 core 155 r2901 7d0ff22 Default : Yes Forced : No Color range : Limited Color primaries : BT.709 Transfer characteristics : BT.709 Matrix coefficients : BT.709 Audio ID : 2 Format : AAC LC Format/Info : Advanced Audio Codec Low Complexity Codec ID : A_AAC-2 Duration : 29 min 46 s Bit rate : 128 kb/s Channel(s) : 2 channels Channel layout : L R Sampling rate : 44.1 kHz Frame rate : 43.066 FPS (1024 SPF) Compression mode : Lossy Stream size : 27.3 MiB (5%) Language : Japanese Default : Yes Forced : No
昨天 11:25 特摄连载
HD 1080p from TVer. General Unique ID : 69788124894008490630749529544498605832 (0x3480B4360A8124924536ABAE8ED7EF08) Complete name : [MagicStar] Ultraman Decker Special Episode 01 [WEBDL] [1080p].mkv Format : Matroska Format version : Version 4 File size : 487 MiB Duration : 24 min 41 s Overall bit rate mode : Variable Overall bit rate : 2 757 kb/s Writing application : Lavf57.48.101 Writing library : Lavf57.48.101 Video ID : 1 Format : AVC Format/Info : Advanced Video Codec Format profile : [email protected] Format settings : CABAC / 4 Ref Frames Format settings, CABAC : Yes Format settings, Reference fra : 4 frames Codec ID : V_MPEG4/ISO/AVC Duration : 24 min 40 s Bit rate mode : Variable Maximum bit rate : 4 047 kb/s Width : 1 920 pixels Height : 1 080 pixels Display aspect ratio : 16:9 Frame rate mode : Constant Frame rate : 29.970 (30000/1001) FPS Color space : YUV Chroma subsampling : 4:2:0 Bit depth : 8 bits Scan type : Progressive Default : No Forced : No Color range : Limited Color primaries : BT.709 Transfer characteristics : BT.709 Matrix coefficients : BT.709 VARIANT_BITRATE : 3165800 Audio ID : 2 Format : AAC LC Format/Info : Advanced Audio Codec Low Complexity Codec ID : A_AAC-2 Duration : 24 min 41 s Channel(s) : 2 channels Channel layout : L R Sampling rate : 48.0 kHz Frame rate : 46.875 FPS (1024 SPF) Compression mode : Lossy Delay relative to video : -67 ms Language : English Default : Yes Forced : No Comment : en (Main) VARIANT_BITRATE : 334400
昨天 11:25 特摄连载
HD 1080p from TTFC. General Unique ID : 159513206068154295850184202118158840821 (0x780120422359339D09644DF90A2373F5) Complete name : [MagicStar] Avataro Sentai Donbrothers EP22 [WEBDL] [1080p].mkv Format : Matroska Format version : Version 4 File size : 670 MiB Duration : 23 min 35 s Overall bit rate : 3 974 kb/s Writing application : Lavf57.48.101 Writing library : Lavf57.48.101 Video ID : 1 Format : AVC Format/Info : Advanced Video Codec Format profile : [email protected] Format settings : CABAC / 4 Ref Frames Format settings, CABAC : Yes Format settings, Reference fra : 4 frames Format settings, GOP : M=3, N=48 Codec ID : V_MPEG4/ISO/AVC Duration : 23 min 34 s Width : 1 920 pixels Height : 1 080 pixels Display aspect ratio : 16:9 Frame rate mode : Constant Frame rate : 23.976 (24000/1001) FPS Color space : YUV Chroma subsampling : 4:2:0 Bit depth : 8 bits Scan type : Progressive Writing library : x264 core 148 Encoding settings : cabac=1 / ref=4 / deblock=1:1:1 / analyse=0x3:0x113 / me=hex / subme=7 / psy=1 / psy_rd=0.40:0.00 / mixed_ref=1 / me_range=16 / chroma_me=1 / trellis=1 / 8x8dct=1 / cqm=0 / deadzone=21,11 / fast_pskip=1 / chroma_qp_offset=-2 / threads=12 / lookahead_threads=2 / sliced_threads=0 / nr=0 / decimate=1 / interlaced=0 / bluray_compat=0 / constrained_intra=0 / bframes=2 / b_pyramid=2 / b_adapt=0 / b_bias=0 / direct=1 / weightb=1 / open_gop=0 / weightp=2 / keyint=48 / keyint_min=25 / scenecut=0 / intra_refresh=0 / rc_lookahead=40 / rc=crf / mbtree=1 / crf=23.0 / qcomp=0.60 / qpmin=0 / qpmax=69 / qpstep=4 / vbv_maxrate=6000 / vbv_bufsize=6000 / crf_max=0.0 / nal_hrd=none / filler=0 / ip_ratio=1.40 / aq=1:0.60 Default : Yes Forced : No Audio ID : 2 Format : AAC LC Format/Info : Advanced Audio Codec Low Complexity Codec ID : A_AAC-2 Duration : 23 min 35 s Channel(s) : 2 channels Channel layout : L R Sampling rate : 48.0 kHz Frame rate : 46.875 FPS (1024 SPF) Compression mode : Lossy Delay relative to video : -42 ms Default : Yes Forced : No
08/06 16:38 特摄连载
HD 1080p from TTFC. General Unique ID : 71565555796946157074024057344562405496 (0x35D706520ED7CD886AB0B32801E9A078) Complete name : [MagicStar] Kamen Rider Revice EP46 [WEBDL] [1080p].mkv Format : Matroska Format version : Version 4 File size : 605 MiB Duration : 23 min 20 s Overall bit rate : 3 627 kb/s Writing application : Lavf57.48.101 Writing library : Lavf57.48.101 Video ID : 1 Format : AVC Format/Info : Advanced Video Codec Format profile : [email protected] Format settings : CABAC / 4 Ref Frames Format settings, CABAC : Yes Format settings, Reference fra : 4 frames Format settings, GOP : M=3, N=48 Codec ID : V_MPEG4/ISO/AVC Duration : 23 min 19 s Width : 1 920 pixels Height : 1 080 pixels Display aspect ratio : 16:9 Frame rate mode : Constant Frame rate : 23.976 (24000/1001) FPS Color space : YUV Chroma subsampling : 4:2:0 Bit depth : 8 bits Scan type : Progressive Writing library : x264 core 148 Encoding settings : cabac=1 / ref=4 / deblock=1:1:1 / analyse=0x3:0x113 / me=hex / subme=7 / psy=1 / psy_rd=0.40:0.00 / mixed_ref=1 / me_range=16 / chroma_me=1 / trellis=1 / 8x8dct=1 / cqm=0 / deadzone=21,11 / fast_pskip=1 / chroma_qp_offset=-2 / threads=12 / lookahead_threads=2 / sliced_threads=0 / nr=0 / decimate=1 / interlaced=0 / bluray_compat=0 / constrained_intra=0 / bframes=2 / b_pyramid=2 / b_adapt=0 / b_bias=0 / direct=1 / weightb=1 / open_gop=0 / weightp=2 / keyint=48 / keyint_min=25 / scenecut=0 / intra_refresh=0 / rc_lookahead=40 / rc=crf / mbtree=1 / crf=23.0 / qcomp=0.60 / qpmin=0 / qpmax=69 / qpstep=4 / vbv_maxrate=6000 / vbv_bufsize=6000 / crf_max=0.0 / nal_hrd=none / filler=0 / ip_ratio=1.40 / aq=1:0.60 Default : Yes Forced : No Audio ID : 2 Format : AAC LC Format/Info : Advanced Audio Codec Low Complexity Codec ID : A_AAC-2 Duration : 23 min 20 s Channel(s) : 2 channels Channel layout : L R Sampling rate : 48.0 kHz Frame rate : 46.875 FPS (1024 SPF) Compression mode : Lossy Delay relative to video : -42 ms Default : Yes Forced : No
08/06 16:38 特摄连载
HD 1080p from Youtube official channel. English and Chinese subtitles added. General Unique ID : 110569798078981675935955456769952118722 (0x532EF7F00B04A537A180A1373E58F7C2) Complete name : [MagicStar] Ultraman Decker EP05 [WEBDL] [1080p] [YOUTUBE].mkv Format : Matroska Format version : Version 4 File size : 484 MiB Duration : 29 min 46 s Overall bit rate mode : Variable Overall bit rate : 2 273 kb/s Encoded date : UTC 2022-08-06 07:12:32 Writing application : mkvmerge v50.0.0 ('Awakenings') 64-bit Writing library : libebml v1.4.0 + libmatroska v1.6.2 Video ID : 1 Format : AVC Format/Info : Advanced Video Codec Format profile : [email protected] Format settings : CABAC / 3 Ref Frames Format settings, CABAC : Yes Format settings, Reference fra : 3 frames Codec ID : V_MPEG4/ISO/AVC Duration : 29 min 46 s Bit rate mode : Variable Bit rate : 2 143 kb/s Maximum bit rate : 40.0 Mb/s Width : 1 920 pixels Height : 1 080 pixels Display aspect ratio : 16:9 Frame rate mode : Constant Frame rate : 23.976 (24000/1001) FPS Color space : YUV Chroma subsampling : 4:2:0 Bit depth : 8 bits Scan type : Progressive Bits/(Pixel*Frame) : 0.043 Stream size : 456 MiB (94%) Default : Yes Forced : No Color range : Limited Color primaries : BT.709 Transfer characteristics : BT.709 Matrix coefficients : BT.709 Audio ID : 2 Format : AAC LC Format/Info : Advanced Audio Codec Low Complexity Codec ID : A_AAC-2 Duration : 29 min 46 s Bit rate : 128 kb/s Channel(s) : 2 channels Channel layout : L R Sampling rate : 44.1 kHz Frame rate : 43.066 FPS (1024 SPF) Compression mode : Lossy Stream size : 27.3 MiB (6%) Language : Japanese Default : Yes Forced : No
08/06 16:37 特摄连载
HD 1080p from TVer. General Unique ID : 159768485820536239201859573962428814405 (0x78324A859A54E1FB650DFB1BADA29445) Complete name : [MagicStar] Ultraman Decker EP05 [WEBDL] [1080p].mkv Format : Matroska Format version : Version 4 File size : 487 MiB Duration : 24 min 40 s Overall bit rate mode : Variable Overall bit rate : 2 758 kb/s Writing application : Lavf57.48.101 Writing library : Lavf57.48.101 Video ID : 1 Format : AVC Format/Info : Advanced Video Codec Format profile : [email protected] Format settings : CABAC / 4 Ref Frames Format settings, CABAC : Yes Format settings, Reference fra : 4 frames Codec ID : V_MPEG4/ISO/AVC Duration : 24 min 40 s Bit rate mode : Variable Maximum bit rate : 4 052 kb/s Width : 1 920 pixels Height : 1 080 pixels Display aspect ratio : 16:9 Frame rate mode : Constant Frame rate : 29.970 (30000/1001) FPS Color space : YUV Chroma subsampling : 4:2:0 Bit depth : 8 bits Scan type : Progressive Default : No Forced : No Color range : Limited Color primaries : BT.709 Transfer characteristics : BT.709 Matrix coefficients : BT.709 VARIANT_BITRATE : 3168000 Audio ID : 2 Format : AAC LC Format/Info : Advanced Audio Codec Low Complexity Codec ID : A_AAC-2 Duration : 24 min 40 s Channel(s) : 2 channels Channel layout : L R Sampling rate : 48.0 kHz Frame rate : 46.875 FPS (1024 SPF) Compression mode : Lossy Delay relative to video : -67 ms Language : English Default : Yes Forced : No Comment : en (Main) VARIANT_BITRATE : 298100
08/06 16:37 特摄连载
HD 1080p from Prime Video. Use CBR bitrate mode. We are planning to upload all prime video japan Dramas and Movies, we need your Support! Support Us USDT(TRC20): TZEUquHY1Uy62JLpbe4MnSbxAyqd2kJdk6 LTC: ltc1qqth67fvzn6cunklklx2072havnlq4sfamnw9p9 BTC: 13UiDwv4CY9FrxnM6ZFiiaKU4EoKQ1CzAd ETH: 0xd663d775e3d53d9e068f294af22883e19cc0fdd8 General Unique ID : 154779897975547879273643416610136711094 (0x74718626D504D2AA0A98008B3DCCDFB6) Complete name : Ultraman.Decker.EP04.1080p.AMZN.WEB-DL.DDP2.0.H.264-MagicStar.mkv Format : Matroska Format version : Version 4 File size : 1.57 GiB Duration : 24 min 34 s Overall bit rate mode : Constant Overall bit rate : 9 173 kb/s Encoded date : UTC 2022-08-04 15:49:22 Writing application : mkvmerge v50.0.0 ('Awakenings') 64-bit Writing library : libebml v1.4.0 + libmatroska v1.6.2 Cover : Yes Attachments : cover.png Video ID : 1 Format : AVC Format/Info : Advanced Video Codec Format profile : [email protected] Format settings : CABAC / 4 Ref Frames Format settings, CABAC : Yes Format settings, Reference fra : 4 frames Codec ID : V_MPEG4/ISO/AVC Duration : 24 min 34 s Bit rate mode : Constant Bit rate : 8 939 kb/s Nominal bit rate : 10 000 kb/s Width : 1 920 pixels Height : 1 080 pixels Display aspect ratio : 16:9 Frame rate mode : Constant Frame rate : 23.976 (24000/1001) FPS Color space : YUV Chroma subsampling : 4:2:0 Bit depth : 8 bits Scan type : Progressive Bits/(Pixel*Frame) : 0.180 Stream size : 1.53 GiB (97%) Default : Yes Forced : No Color range : Limited Color primaries : BT.709 Transfer characteristics : BT.709 Matrix coefficients : BT.709 Audio ID : 2 Format : E-AC-3 Format/Info : Enhanced AC-3 Commercial name : Dolby Digital Plus Codec ID : A_EAC3 Duration : 24 min 34 s Bit rate mode : Constant Bit rate : 224 kb/s Channel(s) : 2 channels Channel layout : L R Sampling rate : 48.0 kHz Frame rate : 31.250 FPS (1536 SPF) Compression mode : Lossy Stream size : 39.4 MiB (2%) Language : Japanese Service kind : Complete Main Default : Yes Forced : No
08/05 00:07 特摄连载
HD 1080p from official website. No watermark version. Japanese subtitles added. General Unique ID : 236190953675951847904669171471249010096 (0xB1B0B9185965A2176393C488191F6DB0) Complete name : [MagicStar] Mahou no Rinobe EP04 [WEBDL] [1080p].mkv Format : Matroska Format version : Version 4 File size : 941 MiB Duration : 45 min 36 s Overall bit rate mode : Variable Overall bit rate : 2 885 kb/s Writing application : Lavf57.48.101 Writing library : Lavf57.48.101 Video ID : 1 Format : AVC Format/Info : Advanced Video Codec Format profile : [email protected] Format settings : CABAC / 4 Ref Frames Format settings, CABAC : Yes Format settings, Reference fra : 4 frames Codec ID : V_MPEG4/ISO/AVC Duration : 45 min 35 s Bit rate mode : Variable Maximum bit rate : 4 038 kb/s Width : 1 920 pixels Height : 1 080 pixels Display aspect ratio : 16:9 Frame rate mode : Constant Frame rate : 29.970 (30000/1001) FPS Color space : YUV Chroma subsampling : 4:2:0 Bit depth : 8 bits Scan type : Progressive Default : Yes Forced : No Color range : Limited Color primaries : BT.709 Transfer characteristics : BT.709 Matrix coefficients : BT.709 Audio ID : 2 Format : AAC LC Format/Info : Advanced Audio Codec Low Complexity Codec ID : A_AAC-2 Duration : 45 min 36 s Channel(s) : 2 channels Channel layout : L R Sampling rate : 48.0 kHz Frame rate : 46.875 FPS (1024 SPF) Compression mode : Lossy Delay relative to video : -66 ms Default : Yes Forced : No
昨天 11:25 日剧更新了
HD 1080p from Abema TV. General Unique ID : 274756456801012079299155142898998237495 (0xCEB42B33A348A88F2C24ED28B162D937) Complete name : [MagicStar] ANIMALS EP08 END [WEBDL] [1080p].mkv Format : Matroska Format version : Version 4 File size : 1.69 GiB Duration : 57 min 34 s Overall bit rate : 4 197 kb/s Writing application : Lavf57.48.101 Writing library : Lavf57.48.101 Video ID : 1 Format : AVC Format/Info : Advanced Video Codec Format profile : [email protected] Format settings : CABAC / 4 Ref Frames Format settings, CABAC : Yes Format settings, Reference fra : 4 frames Codec ID : V_MPEG4/ISO/AVC Duration : 57 min 34 s Nominal bit rate : 4 000 kb/s Width : 1 920 pixels Height : 1 080 pixels Display aspect ratio : 16:9 Frame rate mode : Constant Frame rate : 23.976 (24000/1001) FPS Color space : YUV Chroma subsampling : 4:2:0 Bit depth : 8 bits Scan type : Progressive Bits/(Pixel*Frame) : 0.080 Writing library : x264 core 148 r265 3b70645 Encoding settings : cabac=1 / ref=2 / deblock=1:0:0 / analyse=0x1:0x111 / me=hex / subme=7 / psy=1 / psy_rd=1.00:0.00 / mixed_ref=1 / me_range=16 / chroma_me=1 / trellis=1 / 8x8dct=0 / cqm=0 / deadzone=21,11 / fast_pskip=1 / chroma_qp_offset=-2 / threads=9 / lookahead_threads=1 / sliced_threads=0 / nr=0 / decimate=1 / interlaced=0 / bluray_compat=0 / constrained_intra=0 / bframes=3 / b_pyramid=2 / b_adapt=1 / b_bias=0 / direct=1 / weightb=1 / open_gop=0 / weightp=2 / keyint=1000 / keyint_min=501 / scenecut=0 / intra_refresh=0 / rc_lookahead=40 / rc=2pass / mbtree=1 / bitrate=4000 / ratetol=1.0 / qcomp=0.60 / qpmin=0 / qpmax=69 / qpstep=4 / cplxblur=20.0 / qblur=0.5 / ip_ratio=1.40 / aq=1:1.00 Default : Yes Forced : No Audio ID : 2 Format : AAC LC Format/Info : Advanced Audio Codec Low Complexity Codec ID : A_AAC-2 Duration : 57 min 34 s Channel(s) : 2 channels Channel layout : L R Sampling rate : 44.1 kHz Frame rate : 43.066 FPS (1024 SPF) Compression mode : Lossy Delay relative to video : -23 ms Default : Yes Forced : No
昨天 11:25 日剧更新了
HD 1080p from HULU JAPAN. General Unique ID : 280490461001594575119158026952938518015 (0xD3047F6F8B941F0008AA52B4BDB275FF) Complete name : Shin.Shinchou.Kouki.Classmate.wa.Sengoku.Bushou.EP03.1080p.HULU.WEB-DL.AAC2.0.H.264-MagicStar.mkv Format : Matroska Format version : Version 4 File size : 1.04 GiB Duration : 46 min 3 s Overall bit rate : 3 218 kb/s Encoded date : UTC 2022-08-11 23:45:46 Writing application : mkvmerge v50.0.0 ('Awakenings') 64-bit Writing library : libebml v1.4.0 + libmatroska v1.6.2 Cover : Yes Attachments : cover.png Video ID : 1 Format : AVC Format/Info : Advanced Video Codec Format profile : [email protected] Format settings : CABAC / 4 Ref Frames Format settings, CABAC : Yes Format settings, Reference fra : 4 frames Codec ID : V_MPEG4/ISO/AVC Duration : 46 min 3 s Bit rate : 3 089 kb/s Width : 1 920 pixels Height : 1 080 pixels Display aspect ratio : 16:9 Frame rate mode : Constant Frame rate : 29.970 (29970/1000) FPS Original frame rate : 29.970 (30000/1001) FPS Color space : YUV Chroma subsampling : 4:2:0 Bit depth : 8 bits Scan type : Progressive Bits/(Pixel*Frame) : 0.050 Stream size : 1 018 MiB (96%) Default : Yes Forced : No Color range : Limited Color primaries : BT.709 Transfer characteristics : BT.709 Matrix coefficients : BT.709 Audio ID : 2 Format : AAC LC Format/Info : Advanced Audio Codec Low Complexity Codec ID : A_AAC-2 Duration : 46 min 3 s Bit rate : 125 kb/s Channel(s) : 2 channels Channel layout : L R Sampling rate : 48.0 kHz Frame rate : 46.875 FPS (1024 SPF) Compression mode : Lossy Stream size : 41.3 MiB (4%) Language : Japanese Default : Yes Forced : No
昨天 11:25 日剧更新了
[美国][剧情/奇幻/冒险][权力的游戏第八季 Game.of.Thrones.S08(全06集)][WEBRip-MKV/2G][中英字幕] ◎译  名 权力的游戏 第八季/Game of Thrones: The Final Season/权游8 ◎片  名 Game of Thrones Season 8 ◎年  代 2019 ◎产  地  美国 ◎类  别 剧情/奇幻/冒险 ◎语  言  英语 ◎官方主页  http://www.hbo.com/game-of-thrones ◎上映日期 2019-04-14(美国) ◎整理链接 http://bbs.homefei.me/read-htm-tid-184747.html ◎IMDb评分 9.5/10 from 1,437,376 users ◎IMDb链接 http://www.imdb.com/title/tt0944947 ◎豆瓣评分 9.8/10 from 8,792 users ◎豆瓣链接  https://movie.douban.com/subject/26584183/ ◎集  数 6 ◎片  长 60分钟(E1-E2) / 80分钟(E3-E6) ◎导  演 米格尔·萨普什尼克 Miguel Sapochnik / 大卫·努特尔 David Nutter / 戴维·贝尼奥夫 David Benioff / D·B·威斯 D.B. Weiss ◎编  剧 戴维·贝尼奥夫 David Benioff / D·B·威斯 D.B. Weiss / 乔治·马丁 George R.R. Martin ◎主  演 艾米莉亚·克拉克 Emilia Clarke 基特·哈灵顿 Kit Harington 彼特·丁拉基 Peter Dinklage 苏菲·特纳 Sophie Turner 麦茜·威廉姆斯 Maisie Williams 琳娜·海蒂 Lena Headey 伊萨克·亨普斯特德-怀特 Isaac Hempstead-Wright 尼古拉·科斯特-瓦尔道 Nikolaj Coster-Waldau 约翰·C·布莱德利 John C. Bradley 阿尔菲·艾伦 Alfie Allen 皮鲁·埃斯贝克 Pilou Asbæk 格温多兰·克里斯蒂 Gwendoline Christie 利亚姆·坎宁安 Liam Cunningham ◎简  介 HBO剧集《权力的游戏》第八季将于2019年4月14日播出,本季共6集。 故事发展至第八季,重返临冬城的琼恩·雪诺(基特·哈灵顿 Kit Harington 饰)在布兰·史塔克(伊萨克·亨普斯特德-怀特 Isaac Hempstead-Wright 饰)口中得知了自己身世的 秘密 ,让他与丹妮莉丝·塔格利安(艾米莉亚·克拉克 Emilia Clarke 饰)的关系蒙上了一层冰霜。 詹姆·兰尼斯特(尼古拉·科斯特-瓦尔道 Nikolaj Coster-Waldau 饰)试图召集河间地驻军北伐异鬼,却发现艾德慕·徒利(托比亚斯·门基斯 Tobias Menzies 饰)已经包围你了奔流城。 攸伦·葛雷乔伊(皮鲁·埃斯贝克 Pilou Asbæ 饰)将黄金团带至君临获取了瑟曦(琳娜·海蒂 Lena Headey 饰)的信任,而实际上,他已经与无面者贾昆·赫加尔(汤姆·拉斯齐哈 Tom Wlaschiha 饰)私下达成了秘密协议。 ◎获奖情况 第5届豆瓣 电影 年度榜单 ( 2018 ) 最值得期待的剧集(提名) 第一集磁力链接: magnet:?xt=urn:btih:cb4b612b6259ff87fc9322b6c71867ba107cc841&xl=2130707465 第二集磁力链接: magnet:?xt=urn:btih:08f53f5768c41bd73d266286fedfacbbe05817a9&xl=2285896713 第三集磁力链接: magnet:?xt=urn:btih:4E27CC34832CE75CDF652C0BA51FFB6B45C66CB2 第四集磁力链接: magnet:?xt=urn:btih:B54F70152F7BE160E9FDBC9105A1EBF25BB93921 第五集磁力链接: magnet:?xt=urn:btih:11732BCFE7553549FBD24C30280FFA427F9F03F9 第六集磁力链接: magnet:?xt=urn:btih:C713C1C992DEB0F5A048BED219C00DC676F353BA
05/20 21:03 飘域家园 (讨论)
[美国][剧情/奇幻/冒险][权力的游戏第八季 Game.of.Thrones.S08(更新05集)][WEBRip-MKV/2G][中英字幕] ◎译  名 权力的游戏 第八季/Game of Thrones: The Final Season/权游8 ◎片  名 Game of Thrones Season 8 ◎年  代 2019 ◎产  地  美国 ◎类  别 剧情/奇幻/冒险 ◎语  言  英语 ◎官方主页  http://www.hbo.com/game-of-thrones ◎上映日期 2019-04-14(美国) ◎整理链接 http://bbs.homefei.me/read-htm-tid-184747.html ◎IMDb评分 9.5/10 from 1,437,376 users ◎IMDb链接 http://www.imdb.com/title/tt0944947 ◎豆瓣评分 9.8/10 from 8,792 users ◎豆瓣链接  https://movie.douban.com/subject/26584183/ ◎集  数 6 ◎片  长 60分钟(E1-E2) / 80分钟(E3-E6) ◎导  演 米格尔·萨普什尼克 Miguel Sapochnik / 大卫·努特尔 David Nutter / 戴维·贝尼奥夫 David Benioff / D·B·威斯 D.B. Weiss ◎编  剧 戴维·贝尼奥夫 David Benioff / D·B·威斯 D.B. Weiss / 乔治·马丁 George R.R. Martin ◎主  演 艾米莉亚·克拉克 Emilia Clarke 基特·哈灵顿 Kit Harington 彼特·丁拉基 Peter Dinklage 苏菲·特纳 Sophie Turner 麦茜·威廉姆斯 Maisie Williams 琳娜·海蒂 Lena Headey 伊萨克·亨普斯特德-怀特 Isaac Hempstead-Wright 尼古拉·科斯特-瓦尔道 Nikolaj Coster-Waldau 约翰·C·布莱德利 John C. Bradley 阿尔菲·艾伦 Alfie Allen 皮鲁·埃斯贝克 Pilou Asbæk 格温多兰·克里斯蒂 Gwendoline Christie 利亚姆·坎宁安 Liam Cunningham ◎简  介 HBO剧集《权力的游戏》第八季将于2019年4月14日播出,本季共6集。 故事发展至第八季,重返临冬城的琼恩·雪诺(基特·哈灵顿 Kit Harington 饰)在布兰·史塔克(伊萨克·亨普斯特德-怀特 Isaac Hempstead-Wright 饰)口中得知了自己身世的 秘密 ,让他与丹妮莉丝·塔格利安(艾米莉亚·克拉克 Emilia Clarke 饰)的关系蒙上了一层冰霜。 詹姆·兰尼斯特(尼古拉·科斯特-瓦尔道 Nikolaj Coster-Waldau 饰)试图召集河间地驻军北伐异鬼,却发现艾德慕·徒利(托比亚斯·门基斯 Tobias Menzies 饰)已经包围你了奔流城。 攸伦·葛雷乔伊(皮鲁·埃斯贝克 Pilou Asbæ 饰)将黄金团带至君临获取了瑟曦(琳娜·海蒂 Lena Headey 饰)的信任,而实际上,他已经与无面者贾昆·赫加尔(汤姆·拉斯齐哈 Tom Wlaschiha 饰)私下达成了秘密协议。 ◎获奖情况 第5届豆瓣 电影 年度榜单 ( 2018 ) 最值得期待的剧集(提名) 第一集磁力链接: magnet:?xt=urn:btih:cb4b612b6259ff87fc9322b6c71867ba107cc841&xl=2130707465 第二集磁力链接: magnet:?xt=urn:btih:08f53f5768c41bd73d266286fedfacbbe05817a9&xl=2285896713 第三集磁力链接: magnet:?xt=urn:btih:4E27CC34832CE75CDF652C0BA51FFB6B45C66CB2 第四集磁力链接: magnet:?xt=urn:btih:B54F70152F7BE160E9FDBC9105A1EBF25BB93921 第五集磁力链接: magnet:?xt=urn:btih:11732BCFE7553549FBD24C30280FFA427F9F03F9
05/13 19:54 飘域家园 (讨论)
[美国][剧情/奇幻/冒险][权力的游戏第八季 Game.of.Thrones.S08(更新04集)][WEBRip-MKV/2G][中英字幕] ◎译  名 权力的游戏 第八季/Game of Thrones: The Final Season/权游8 ◎片  名 Game of Thrones Season 8 ◎年  代 2019 ◎产  地  美国 ◎类  别 剧情/奇幻/冒险 ◎语  言  英语 ◎官方主页  http://www.hbo.com/game-of-thrones ◎上映日期 2019-04-14(美国) ◎整理链接 http://bbs.homefei.me/read-htm-tid-184747.html ◎IMDb评分 9.5/10 from 1,437,376 users ◎IMDb链接 http://www.imdb.com/title/tt0944947 ◎豆瓣评分 9.8/10 from 8,792 users ◎豆瓣链接  https://movie.douban.com/subject/26584183/ ◎集  数 6 ◎片  长 60分钟(E1-E2) / 80分钟(E3-E6) ◎导  演 米格尔·萨普什尼克 Miguel Sapochnik / 大卫·努特尔 David Nutter / 戴维·贝尼奥夫 David Benioff / D·B·威斯 D.B. Weiss ◎编  剧 戴维·贝尼奥夫 David Benioff / D·B·威斯 D.B. Weiss / 乔治·马丁 George R.R. Martin ◎主  演 艾米莉亚·克拉克 Emilia Clarke 基特·哈灵顿 Kit Harington 彼特·丁拉基 Peter Dinklage 苏菲·特纳 Sophie Turner 麦茜·威廉姆斯 Maisie Williams 琳娜·海蒂 Lena Headey 伊萨克·亨普斯特德-怀特 Isaac Hempstead-Wright 尼古拉·科斯特-瓦尔道 Nikolaj Coster-Waldau 约翰·C·布莱德利 John C. Bradley 阿尔菲·艾伦 Alfie Allen 皮鲁·埃斯贝克 Pilou Asbæk 格温多兰·克里斯蒂 Gwendoline Christie 利亚姆·坎宁安 Liam Cunningham ◎简  介 HBO剧集《权力的游戏》第八季将于2019年4月14日播出,本季共6集。 故事发展至第八季,重返临冬城的琼恩·雪诺(基特·哈灵顿 Kit Harington 饰)在布兰·史塔克(伊萨克·亨普斯特德-怀特 Isaac Hempstead-Wright 饰)口中得知了自己身世的 秘密 ,让他与丹妮莉丝·塔格利安(艾米莉亚·克拉克 Emilia Clarke 饰)的关系蒙上了一层冰霜。 詹姆·兰尼斯特(尼古拉·科斯特-瓦尔道 Nikolaj Coster-Waldau 饰)试图召集河间地驻军北伐异鬼,却发现艾德慕·徒利(托比亚斯·门基斯 Tobias Menzies 饰)已经包围你了奔流城。 攸伦·葛雷乔伊(皮鲁·埃斯贝克 Pilou Asbæ 饰)将黄金团带至君临获取了瑟曦(琳娜·海蒂 Lena Headey 饰)的信任,而实际上,他已经与无面者贾昆·赫加尔(汤姆·拉斯齐哈 Tom Wlaschiha 饰)私下达成了秘密协议。 ◎获奖情况 第5届豆瓣 电影 年度榜单 ( 2018 ) 最值得期待的剧集(提名) 第一集磁力链接: magnet:?xt=urn:btih:cb4b612b6259ff87fc9322b6c71867ba107cc841&xl=2130707465 第二集磁力链接: magnet:?xt=urn:btih:08f53f5768c41bd73d266286fedfacbbe05817a9&xl=2285896713 第三集磁力链接: magnet:?xt=urn:btih:4E27CC34832CE75CDF652C0BA51FFB6B45C66CB2 第四集磁力链接: magnet:?xt=urn:btih:B54F70152F7BE160E9FDBC9105A1EBF25BB93921
05/06 19:32 飘域家园 (讨论)
[美国][剧情/奇幻/冒险][权力的游戏第八季 Game.of.Thrones.S08E01-02(更新02集)][WEBRip-MKV/2G][中英字幕] ◎译  名 权力的游戏 第八季/Game of Thrones: The Final Season/权游8 ◎片  名 Game of Thrones Season 8 ◎年  代 2019 ◎产  地  美国 ◎类  别 剧情/奇幻/冒险 ◎语  言  英语 ◎官方主页  http://www.hbo.com/game-of-thrones ◎上映日期 2019-04-14(美国) ◎整理链接 http://bbs.homefei.me/read-htm-tid-184747.html ◎IMDb评分 9.5/10 from 1,437,376 users ◎IMDb链接 http://www.imdb.com/title/tt0944947 ◎豆瓣评分 9.8/10 from 8,792 users ◎豆瓣链接  https://movie.douban.com/subject/26584183/ ◎集  数 6 ◎片  长 60分钟(E1-E2) / 80分钟(E3-E6) ◎导  演 米格尔·萨普什尼克 Miguel Sapochnik / 大卫·努特尔 David Nutter / 戴维·贝尼奥夫 David Benioff / D·B·威斯 D.B. Weiss ◎编  剧 戴维·贝尼奥夫 David Benioff / D·B·威斯 D.B. Weiss / 乔治·马丁 George R.R. Martin ◎主  演 艾米莉亚·克拉克 Emilia Clarke 基特·哈灵顿 Kit Harington 彼特·丁拉基 Peter Dinklage 苏菲·特纳 Sophie Turner 麦茜·威廉姆斯 Maisie Williams 琳娜·海蒂 Lena Headey 伊萨克·亨普斯特德-怀特 Isaac Hempstead-Wright 尼古拉·科斯特-瓦尔道 Nikolaj Coster-Waldau 约翰·C·布莱德利 John C. Bradley 阿尔菲·艾伦 Alfie Allen 皮鲁·埃斯贝克 Pilou Asbæk 格温多兰·克里斯蒂 Gwendoline Christie 利亚姆·坎宁安 Liam Cunningham ◎简  介 HBO剧集《权力的游戏》第八季将于2019年4月14日播出,本季共6集。 故事发展至第八季,重返临冬城的琼恩·雪诺(基特·哈灵顿 Kit Harington 饰)在布兰·史塔克(伊萨克·亨普斯特德-怀特 Isaac Hempstead-Wright 饰)口中得知了自己身世的 秘密 ,让他与丹妮莉丝·塔格利安(艾米莉亚·克拉克 Emilia Clarke 饰)的关系蒙上了一层冰霜。 詹姆·兰尼斯特(尼古拉·科斯特-瓦尔道 Nikolaj Coster-Waldau 饰)试图召集河间地驻军北伐异鬼,却发现艾德慕·徒利(托比亚斯·门基斯 Tobias Menzies 饰)已经包围你了奔流城。 攸伦·葛雷乔伊(皮鲁·埃斯贝克 Pilou Asbæ 饰)将黄金团带至君临获取了瑟曦(琳娜·海蒂 Lena Headey 饰)的信任,而实际上,他已经与无面者贾昆·赫加尔(汤姆·拉斯齐哈 Tom Wlaschiha 饰)私下达成了秘密协议。 ◎获奖情况 第5届豆瓣 电影 年度榜单 ( 2018 ) 最值得期待的剧集(提名) 第一集磁力链接: magnet:?xt=urn:btih:cb4b612b6259ff87fc9322b6c71867ba107cc841&xl=2130707465 第二集磁力链接: magnet:?xt=urn:btih:08f53f5768c41bd73d266286fedfacbbe05817a9&xl=2285896713
04/22 19:15 飘域家园 (讨论) 约1条评论
[美国][剧情/奇幻/冒险][权力的游戏第八季 Game.of.Thrones.S08E01(更新01集)][WEBRip-MKV/2G][中英字幕] ◎译  名 权力的游戏 第八季/Game of Thrones: The Final Season/权游8 ◎片  名 Game of Thrones Season 8 ◎年  代 2019 ◎产  地  美国 ◎类  别 剧情/奇幻/冒险 ◎语  言  英语 ◎官方主页  http://www.hbo.com/game-of-thrones ◎上映日期 2019-04-14(美国) ◎整理链接 http://bbs.homefei.me/read-htm-tid-184747.html ◎IMDb评分 9.5/10 from 1,437,376 users ◎IMDb链接 http://www.imdb.com/title/tt0944947 ◎豆瓣评分 9.8/10 from 8,792 users ◎豆瓣链接  https://movie.douban.com/subject/26584183/ ◎集  数 6 ◎片  长 60分钟(E1-E2) / 80分钟(E3-E6) ◎导  演 米格尔·萨普什尼克 Miguel Sapochnik / 大卫·努特尔 David Nutter / 戴维·贝尼奥夫 David Benioff / D·B·威斯 D.B. Weiss ◎编  剧 戴维·贝尼奥夫 David Benioff / D·B·威斯 D.B. Weiss / 乔治·马丁 George R.R. Martin ◎主  演 艾米莉亚·克拉克 Emilia Clarke 基特·哈灵顿 Kit Harington 彼特·丁拉基 Peter Dinklage 苏菲·特纳 Sophie Turner 麦茜·威廉姆斯 Maisie Williams 琳娜·海蒂 Lena Headey 伊萨克·亨普斯特德-怀特 Isaac Hempstead-Wright 尼古拉·科斯特-瓦尔道 Nikolaj Coster-Waldau 约翰·C·布莱德利 John C. Bradley 阿尔菲·艾伦 Alfie Allen 皮鲁·埃斯贝克 Pilou Asbæk 格温多兰·克里斯蒂 Gwendoline Christie 利亚姆·坎宁安 Liam Cunningham ◎简  介 HBO剧集《权力的游戏》第八季将于2019年4月14日播出,本季共6集。 故事发展至第八季,重返临冬城的琼恩·雪诺(基特·哈灵顿 Kit Harington 饰)在布兰·史塔克(伊萨克·亨普斯特德-怀特 Isaac Hempstead-Wright 饰)口中得知了自己身世的 秘密 ,让他与丹妮莉丝·塔格利安(艾米莉亚·克拉克 Emilia Clarke 饰)的关系蒙上了一层冰霜。 詹姆·兰尼斯特(尼古拉·科斯特-瓦尔道 Nikolaj Coster-Waldau 饰)试图召集河间地驻军北伐异鬼,却发现艾德慕·徒利(托比亚斯·门基斯 Tobias Menzies 饰)已经包围你了奔流城。 攸伦·葛雷乔伊(皮鲁·埃斯贝克 Pilou Asbæ 饰)将黄金团带至君临获取了瑟曦(琳娜·海蒂 Lena Headey 饰)的信任,而实际上,他已经与无面者贾昆·赫加尔(汤姆·拉斯齐哈 Tom Wlaschiha 饰)私下达成了秘密协议。 ◎获奖情况 第5届豆瓣 电影 年度榜单 ( 2018 ) 最值得期待的剧集(提名) 磁力链接: magnet:?xt=urn:btih:cb4b612b6259ff87fc9322b6c71867ba107cc841&xl=2130707465
04/15 20:32 飘域家园 (讨论)
[中国][战争/历史][辛亥革命1911 Revolution 2011][BD-MKV/3G][中英字幕][赵文瑄/孙淳/成龙/姜武/李冰冰] 【中 文 名】 辛亥革命 【外 文 名】 Xin Hai Ge Ming 【译 名】 1911辛亥革命 【出品时间】 2011年 【出品公司】上海东方影视发行有限责任公司 【制片地区】 中国 【制片成本】 $30,000,000/estimated 【拍摄地点】 浙江横店影视城 【导 演】 张黎,成龙 【编 剧】 王兴东,陈宝光 【制 片 人】 汪天云,毕述林,王浙滨 【类 型】 战争/历史 【主 演】 赵文瑄,孙淳,成龙,姜武,黄志忠,李冰冰 【片 长】 120分钟 【上映时间】 2011年9月23日 【语言字幕】 粤语/中英字幕 【海外发行】 北京耀莱国际文化产业有限公司 【整理链接】 http://bbs.homefei.me/read-htm-tid-183593.html 【 剧情 简介】 《辛亥革命》是由张黎和成龙执导,赵文瑄、李冰冰、陈冲、孙淳、房祖名、胡歌、余少群、杜宇航等主演的革命 战争 片。该片讲述了晚清末年,内忧外患,中华民族到了危亡之际。改良派维新变法运动的失败,孙中山为首的革命派,决心以革命推翻清政府,建立共和体制的故事。该片于2011年9月23日在中国内地公映。 晚清末年,内忧外患,中华民族到了危亡之际。改良派维新变法运动的失败,孙中山为首的革命派,决心以革命推翻清政府,建立共和体制。 1895到1910年,革命党人先后发动了多次起义,秋瑾、徐锡麟等一批革命党先驱先后牺牲,革命陷入低潮。 1910年底,孙中山再次在海外召集同盟会骨干,组织力量准备在广州发动起义黄兴与徐宗汉假扮夫妇, 秘密 潜入广州。然而广州之战终因革命党人寡不敌众而告负,林觉民等一大批革命骨干壮烈牺牲,黄兴也身负重伤。徐宗汉等冒死收葬了烈士遗体72具,葬于广州城外的黄花岗。 经过这次的起义,清政府对革命党人进行了血腥镇压,同时积极寻求与帝国主义的卖国交易。 在四川,清廷又一次丧权辱国的行为,引发了轰轰烈烈的保路运动,湖北新军被紧急抽调前去镇压。在武昌,新军当中的革命党名单泄露,湖广总督瑞澂开始对名单上的革命党人逐一捕杀,革命形势十分危急,革命党人熊秉坤、金兆龙等愤然打响了革命第一枪。经过一夜激战,武昌起义的革命军攻占了总督府,黎元洪被革命军将士紧急推为军政府都督。 武昌起义成功,举国震惊,消息传到 美国 ,孙中山和同盟会成员欢欣鼓舞。立即派黄兴和徐宗汉赶到武昌战场,大大振奋了革命军士气。不惜以热血和生命保卫飘扬着革命红旗的武汉三镇。经过这么多血与火的洗礼,黄兴和徐宗汉的感情不断升华,两人决定结为革命夫妻继续比并肩战斗。 风雨飘渺的清廷只好请袁世凯出山,率北洋军镇压革命。袁世凯一方面镇压革命军,另一方面仍试图在各方势力的博弈中,暗地里通过革命党人汪精卫传达与革命党和谈的愿望。 革命的危急关头,孙中山奔赴海外,力排众议,最终说服西方列国财团,不再借贷款支持清廷。 阳夏保卫战打得异常惨烈,黄兴和黎元洪艰难支撑,在各种反动势力的夹击下,黄兴毅然决定率部撤往长江下游,集聚力量,以图大业。 长江战舰在行进中,传来了多省宣布独立的消息,黄兴等备受鼓舞。 自此,革命形势进入了南北对峙的局面,经过多方努力,南北代表唐绍仪和伍廷芳终于坐下来会谈,经过艰难谈判,双方达成共识,支持建立共和政体;经过十八省代表的公开民主选举,孙中山被推选为首任大总统。孙中山表示,只要袁世凯敦促清帝退位,他即可让位,由逼退清让位的人,出任中华民国大总统。 【电影 截图 】 磁力链接: magnet:?xt=urn:btih:eafdf760d5551860f6a6f0af02c20fa51d53a00c&xl=3321889801
03/23 10:57 飘域家园 (讨论)
◎译  名 异形2 / 异形Ⅱ / 异形续集 ◎片  名 Aliens ◎年  代 1986 ◎产  地 美国 ◎类  别 动作 / 科幻 / 惊悚 / 冒险 ◎语  言 英语 ◎上映日期 1986-07-18(美国) ◎豆瓣评星 ★★★★☆ ◎豆瓣评分 8.2/10 from 138,513,706,962 users ◎豆瓣链接 https://movie.douban.com/subject/1293792/ ◎片  长 137分钟 / 154分钟(1992年特别版) ◎导  演 詹姆斯·卡梅隆 / James Cameron ◎演  员 西格妮·韦弗 / Sigourney Weaver | 饰 蕾普莉 Ripley       凯莉·赫恩 / Carrie Henn | 饰 纽特 Newt       迈克尔·比恩 / Michael Biehn | 饰 下士希克斯 Corporal Hicks       保罗·雷瑟 / Paul Reiser | 饰 伯克 Burke       兰斯·亨利克森 / Lance Henriksen | 饰 毕晓普 Bishop       比尔·帕克斯顿 / Bill Paxton | 饰 士兵哈德逊 Private Hudson       威廉·霍普 / William Hope | 饰 中尉戈尔曼 Lieutenant Gorman       詹妮特·戈德斯坦恩 / Jenette Goldstein | 饰 士兵巴斯克斯 Private Vasquez       阿尔·马修斯 / Al Matthews | 饰 中士阿蓬 Sergeant Apone       马克·罗斯顿 / Mark Rolston | 饰 士兵德雷克 Private Drake       里科·罗斯 / Ricco Ross | 饰 士兵弗罗斯特 Private Frost       科莱特·希勒 / Colette Hiller | 饰 下士费罗 Corporal Ferro       丹尼尔·卡什 / Daniel Kash | 饰 士兵史邦克梅尔 Private Spunkmeyer       辛西娅·戴尔·斯科特 / Cynthia Dale Scott | 饰 下士迪特里希 Corporal Dietrich       提普·蒂平 / Tip Tipping | 饰 士兵克罗 Private Crowe       保罗·马克斯韦尔 / Paul Maxwell | 饰 范·勒文 Van Leuwen       约翰·利斯 / John Lees | 饰 动力装载机操作员 Power Loader Operator       卡尔·图普 / Carl Toop | 饰 异形战士 Alien Warrior       户田惠子 / Keiko Toda ◎编  剧 詹姆斯·卡梅隆 / James Cameron       大卫·吉勒 / David Giler       沃尔特·希尔 / Walter Hill       丹·欧班农 / Dan O'Bannon       罗纳德·舒塞特 / Ronald Shusett ◎制  片  人 大卫·吉勒 / David Giler ◎音  乐 詹姆斯·霍纳 / James Horner ◎美  术 Michael Lamont Michael Lamont       斯坦·温斯顿 / Stan Winston       Ken Court Ken Court       弗雷德·侯尔 / Fred Hole ◎服  装 艾玛·波特斯 / Emma Porteus ◎化  妆 彼得·罗勃-金 / Peter Robb-King       Elaine Bowerbank Elaine Bowerbank       托尼·加德纳 / Tony Gardner ◎视觉特效 布赖恩·约翰逊 / Brian Johnson       托尼·加德纳 / Tony Gardner       Peter Russell Peter Russell       Robert Gavin Robert Gavin       Doug Beswick Doug Beswick       苏赞妮·M·本森 / Suzanne M. Benson       史蒂文·贝格 / Steven Begg       布莱恩·史密西斯 / Brian Smithies       罗伯特·斯科塔克 / Robert Skotak       派特·迈克朗 / Pat McClung       Alan G. Markowitz Alan G. Markowitz ◎现场特效 斯蒂芬·诺林顿 / Stephen Norrington ◎简  介    蕾普莉(西格妮•韦弗 Sigourney Weaver 饰)是首次探险任务遇到异形后的唯一生还者,她一直冬眠直到被救援队救回地球。当她睁开眼睛后,才发现自己已经冬眠了57年!   期间,人类已经移居到了异形所在的星球。蕾普莉知道后,马上向当局报局该星球上异形的情况,但却被当局认为要么精神不正常,要么谎话连篇。蕾普莉见当局对她的说话不予理睬,便决心不再涉足和异形有关的任何事。   果不其然,在那个异形所在的那个星球上定居的人忽然和地球中断了联系。这时当局才注意到蕾普莉之前汇报的情况,决定派出军队去营救。蕾普莉被说服参与营救行动。   又一场腥风血雨的战斗展开了! ◎获奖情况    第59届奥斯卡金像奖 (1987)   最佳女主角(提名) 西格妮·韦弗   最佳剪辑(提名) 雷·拉夫乔伊   最佳视觉效果 斯坦·温斯顿,罗伯特·斯科塔克,约翰·理查森,苏赞妮·M·本森   最佳音效剪辑 唐·夏普   最佳音响(提名) 迈克尔·A·卡特,尼古拉·勒·梅苏里尔,罗伊·查尔曼,格拉汉姆·V·哈特斯通   最佳艺术指导(提名) 克里斯皮安·萨利斯,彼得·拉蒙特   最佳原创配乐(提名) 詹姆斯·霍纳 ◎台词金句   Ripley:“Get away from her, you bitch!”雷普莉:“给我从她身边滚开,婊子!”   Newt: My mommy always said there were no monsters - no real ones - but there are, aren't there?   Ripley: Yes, there are.   Newt: Why do they tell little kids that?   Ripley: Most of the time it's true.         女孩:我妈妈告诉我世界上根本就没有怪兽--真的没有--可是这里却有。   雷普莉:这里的确有,不是吗?   女孩:那大人们为什么告诉孩子们没有?   雷普莉:大多数时候他们并没有骗你……      Newt: We'd better get back, 'cause it'll be dark soon, and they mostly come at night... mostly.   纽伊特:我们最好回去,因为天很快就要黑了,而且他们经常是在晚上出现……经常是这样的。   --------------------------------------------------------------------------------   (拔出他的霰弹枪)   Hicks: I like to keep this handy for close encounters.   黑克斯:我很喜欢用这家伙来对付近距离的对抗。   --------------------------------------------------------------------------------   Hudson: They're coming outta the walls. They're coming outta the goddamn walls, we're fucked!   休德斯:他们从墙里钻出来了。他们从该死的墙里钻出来了,我们被骗了!   --------------------------------------------------------------------------------   Hicks: Outstanding. Now all we need is a deck of cards.   黑克斯:漂亮。现在我们所需要的就是一副牌。   --------------------------------------------------------------------------------   Gorman: Hicks, meet me at the south lock. We're coming in.   Hudson: He's coming in. I feel safer already.   戈曼:黑克斯,在南边的水闸等我,我们很快就进来。   休斯顿:他快要进来了。我已经感觉到更加安全些。   --------------------------------------------------------------------------------   Van Leuwin: Thank you, Officer Ripley, that will be all.   Ripley: God damn it, that's not all! 'Cause if one of those things gets down here then that will be all! And all this, this bullshit that you think is so important, you can just kiss all that goodbye!   冯·鲁温:谢谢你,蕾普莉船长,一切都已经结束。   蕾普莉:该死的,还没有结束呢!因为一旦那些东西中有一个进入到这儿,那么所有一切都将结束了,你应该知道问题的严重性,你有可能就要和所有的一切说再见了! ◎幕后揭秘   【太空殖民地的战争】   当一部影片取得大众的好评和极佳的票房收入之后,制片商为了谋求更大的商业利润,往往不失时机地加紧投拍该片的续集,借第一部的影响力推销。事实证明十投九中,赢利居多。也正是因为如此,好莱坞的商业电影往往有着一种很奇怪的现象:卖座影片大多数没有一个明了的结局,为的就是吸引制片商投资拍摄续集。《异形》亦是如此,续集很快出台了。   《异形2》的故事承接第一集,脉络清晰,故事发展合情合理,丝丝入扣。片中不但有更多令人感到震惊刺激的镜头,而且是第一集必然的结果。人类在发现异形的星球上建立殖民地,无可避免与之发生冲突斗争。影片将人们对异形的新奇感转化成了人类对外星生物大规模进攻时的那种震憾力与惊奇感。激烈的战斗与紧张的情节自始至终都在吸引着观众的眼球,异形母兽的出现总结了异形生物的来历。对武器的设想也并不是一味的夸张,激光、核子等未来武器不再大行其道,对现代武器的改进才是其真正亮点。影片中的每个情节都渗透着大胆而合理的想象,令人叹服。   《终结者》之父--詹姆斯·卡梅隆担纲执导本片。卡梅隆自编自导的这部影片明智地避免了重复第一集的风格,把人和异形的战场从单个的太空船上搬到了一个巨大的太空基地,以其独特的动作片风格重新演绎了这个发生在太空中的恐怖故事。沃尔特·希尔是卡梅隆崇拜的一位作家和导演,他并无意涉足科幻领域;大卫·吉勒也是一样。所以直到卡梅隆登上了这艘“太空船”,《异形》才开始投拍续集。本片的视觉效果堪称一流,其美工设计给人一种卡梅隆影片所一贯具有的,纯粹的机械审美快感,其特技制作也达到了电脑特技未参与电影制作之前的高峰。   制片盖尔·安妮·赫德决定在英格兰拍摄影片,因为这样不仅可以节省开支,而且也是出于对影片连续性的打算。大部分拍摄过《异形》的技术人员都住在英格兰,他们为影片奠定了一个坚实的基础。卡梅隆认为本片的吸引力在于它可以发挥人的想象力,比如说影片中对付异形的武器。卡梅隆说自己并不想成为电影的奴隶,但影片中的武器实在是太吸引人了。尽管卡梅隆认为武器是影片中的亮点之一,但扮演女主角雷普莉的薛歌妮·韦弗对此却持反对意见。韦弗并不喜欢武器,拍摄过程中,每天都要接触不同种类的奇怪武器,这使她感到很不舒服。她是美国枪支管制协会的一员,在这样一部血腥的科幻影片中饰演角色让她感觉很困惑。   大兵W.哈德森的扮演者比尔·帕克斯顿这样说:“我还记得我去试镜的时候,詹姆斯递给我一个纸壳管子,让我把它当作一把脉冲步枪。老天,我那时有点过分投入了,我以为我一定把它搞砸了。但不久后,我接到了詹姆斯的电话:‘棒极了,你入选了。’”   影片拍摄到一半的时候,卡梅隆将饰演黑克斯的詹姆斯·利马换成了迈克尔·贝恩。对此卡梅隆并不想多说什么,他认为用“艺术观点上的不同”来概括再合适不过。拍摄过程中还发生了一场事故,景棚发生了火灾。那时演员们正在拍摄撤退到APG的那场戏,火焰喷射器点燃了景棚。由于布景都是塑料制成的,所以燃烧时,有毒气体几乎使演员们窒息。   卡梅隆从未与雷德利·斯科特谈论过这部电影。他确定斯科特对本片一定会有所保留。通过媒介,卡梅隆告诉斯科特这部片子是一部不错的续集。斯科特的《异形》是一部完美的作品,超越它并不容易。但卡梅隆经常说,如果斯科特执导《异形3》的话,他就一定会执导《异形4》。   影片不足之处就是情节的雷同性十分明显,这也是系列片的一大缺点。第一集中雷普莉决定自毁飞船以杀死异形,结果异形躲在了穿梭机上,经过一番搏斗后,异形被排入太空;第二集几乎原封未动地挪用了这一构思,星球虽然被摧毁了,但异形母兽却上了飞船,仍旧是一番打斗后被排物管道送入太空,但相信“异形”迷一定会将其看做对前一集的一次回顾,一个仁者见仁、智者见智的问题。
08/10 14:48 五花八门
Love Live! 虹咲学园学园偶像同好会 3rd Live! School Idol Festival ~梦之始端~ BDRip Love Live! Nijigasaki Gakuen School Idol Doukoukai 3rd Live! School Idol Festival ~Yume no Hajimari~ BDRip ラブライブ!虹ヶ咲学園スクールアイドル同好会 3rd Live! School Idol Festival ~夢の始まり~ BDRip 10-bit 1080p HEVC + FLAC ,MKV 格式。每场 Live 约 20 GB。 这个项目与 虹之咲字幕组 合作,感谢他们精心制作的字幕。 This project is in cooperation with NijigakuSub . Thanks to them for elaborating Chinese subtitles. 本次虹 3rd live 采用最高规格制作,分为内嵌硬字幕视频、无字幕视频+外挂字幕两个版本,两个版本的视频质量完全相同。内嵌字幕版为全特效字幕,外挂字幕为去特效只保留文字的版本。除非对无字幕视频有特殊需求,否则我们强烈建议观看内嵌字幕版,以获得更好的观看体验。 This release is produced with the best specifications. It is devided into two versions: the video embedded hardcoded subtitles and the unsubtitled video with external subtitles. The quality of the both version are exactly the same. The embedded hardcoded subtitles have full effects, while the external subtitles only have the text contents. Unless you have a special need for unsubtitled videos, we strongly recommend watching the embedded hardcoded subtitles version for a better experience. 虹 3rd 原盘属于质量最好的一类,真人部分原生 30p,动画部分 24d。我们将动画部分还原为 24p,采用动态帧率(vfr, 30p+24p)进行制作。同时,我们调整了原盘结构,将每场 Live 合并到一个文件内。动画部分的画质与 TV 动画 BD 基本一致,除了色带问题严重很多。我们基本沿用 TV 动画 BD 的处理思路,并加强了去色带的力度。真人部分画质很好,码率充足,我们只进行常规处理,去除色带色块,最后进行自适应降噪以控制码率。 The source is of the best quality, with the interlacing type of native 30p (live action) and 24d (animation). We returned the animation part to 24p and made the production with variable frame rate (30p+24p). Together, we adjusted the structure of the BD source and combined each live into a single file. The image quality of animation part is basically the same as the BD for TV animation, except for more colour banding. We basically followed the same idea of the processing in BD for TV animation, and strengthened the de-banding process. The live part is of great quality with sufficient bitrate, thus we only treated it with some regular process, with de-banding and de-blocking, and finally adaptive denoising to control the bitrate. 总监: 我已经完全悸动了 感谢所有资源提供者 / Thank to all resource providers: CD&Scans: 雪原黄狗[email protected] 本资源扫图格式为 WebP,浏览详情请参见 https://vcb-s.com/archives/7949 。 Please refer to https://vcb-s.com/archives/7949 if you have trouble viewing WebP images. 有关 TSDM 合购区的详情请参见 https://www.tsdm39.net/forum.php?mod=viewthread&tid=879923 。 Please refer to https://www.tsdm39.net/forum.php?mod=viewthread&tid=879923 for more information about jointly purchased music. 基础播放器教程: PotPlayer / MPC-HC / IINA 进阶播放器教程: madVR / PotPlayer+madVR / mpv 中文字幕分享区: Anime 分享论坛 (请善用搜索) 项目计划与列表: VCB-Studio 项目列表 (每月初更新) Comparison (right click on the image and open it in a new tab to see the full-size one) Source________________________________________________Encode
08/10 14:35 五花八门